  0
SECTION
  2
HEADER
  9
$ACADVER
  1
AC1015
  9
$ACADMAINTVER
 70
    20
  9
$DWGCODEPAGE
  3
ANSI_936
  9
$INSBASE
 10
0.0
 20
0.0
 30
0.0
  9
$EXTMIN
 10
1067.209698375661
 20
102.8190454633116
 30
0.0
  9
$EXTMAX
 10
1176.669679569823
 20
179.4677590061394
 30
0.0
  9
$LIMMIN
 10
0.0
 20
0.0
  9
$LIMMAX
 10
12.0
 20
9.0
  9
$ORTHOMODE
 70
     1
  9
$REGENMODE
 70
     1
  9
$FILLMODE
 70
     1
  9
$QTEXTMODE
 70
     0
  9
$MIRRTEXT
 70
     0
  9
$LTSCALE
 40
1.0
  9
$ATTMODE
 70
     1
  9
$TEXTSIZE
 40
0.2
  9
$TRACEWID
 40
0.05
  9
$TEXTSTYLE
  7
STANDARD
  9
$CLAYER
  8
标注
  9
$CELTYPE
  6
ByLayer
  9
$CECOLOR
 62
   256
  9
$CELTSCALE
 40
1.0
  9
$DISPSILH
 70
     0
  9
$DIMSCALE
 40
1.0
  9
$DIMASZ
 40
0.65
  9
$DIMEXO
 40
0.88
  9
$DIMDLI
 40
0.015
  9
$DIMRND
 40
0.0
  9
$DIMDLE
 40
0.0
  9
$DIMEXE
 40
0.32
  9
$DIMTP
 40
0.0
  9
$DIMTM
 40
0.0
  9
$DIMTXT
 40
0.65
  9
$DIMCEN
 40
0.09
  9
$DIMTSZ
 40
0.0
  9
$DIMTOL
 70
     0
  9
$DIMLIM
 70
     0
  9
$DIMTIH
 70
     0
  9
$DIMTOH
 70
     0
  9
$DIMSE1
 70
     0
  9
$DIMSE2
 70
     0
  9
$DIMTAD
 70
     0
  9
$DIMZIN
 70
     8
  9
$DIMBLK
  1

  9
$DIMASO
 70
     1
  9
$DIMSHO
 70
     1
  9
$DIMPOST
  1
"
  9
$DIMAPOST
  1
"
  9
$DIMALT
 70
     0
  9
$DIMALTD
 70
     1
  9
$DIMALTF
 40
0.03937
  9
$DIMLFAC
 40
1.0
  9
$DIMTOFL
 70
     1
  9
$DIMTVP
 40
0.0
  9
$DIMTIX
 70
     0
  9
$DIMSOXD
 70
     0
  9
$DIMSAH
 70
     0
  9
$DIMBLK1
  1

  9
$DIMBLK2
  1

  9
$DIMSTYLE
  2
副本STANDARD
  9
$DIMCLRD
 70
   256
  9
$DIMCLRE
 70
   256
  9
$DIMCLRT
 70
   256
  9
$DIMTFAC
 40
1.0
  9
$DIMGAP
 40
0.3
  9
$DIMJUST
 70
     0
  9
$DIMSD1
 70
     0
  9
$DIMSD2
 70
     0
  9
$DIMTOLJ
 70
     1
  9
$DIMTZIN
 70
     8
  9
$DIMALTZ
 70
     8
  9
$DIMALTTZ
 70
     8
  9
$DIMUPT
 70
     0
  9
$DIMDEC
 70
     3
  9
$DIMTDEC
 70
     3
  9
$DIMALTU
 70
     2
  9
$DIMALTTD
 70
     1
  9
$DIMTXSTY
  7
STANDARD
  9
$DIMAUNIT
 70
     0
  9
$DIMADEC
 70
     0
  9
$DIMALTRND
 40
0.0
  9
$DIMAZIN
 70
     0
  9
$DIMDSEP
 70
    46
  9
$DIMATFIT
 70
     3
  9
$DIMFRAC
 70
     2
  9
$DIMLDRBLK
  1

  9
$DIMLUNIT
 70
     5
  9
$DIMLWD
 70
    -2
  9
$DIMLWE
 70
    -2
  9
$DIMTMOVE
 70
     2
  9
$LUNITS
 70
     2
  9
$LUPREC
 70
     4
  9
$SKETCHINC
 40
0.1
  9
$FILLETRAD
 40
0.0
  9
$AUNITS
 70
     0
  9
$AUPREC
 70
     0
  9
$MENU
  1
.
  9
$ELEVATION
 40
0.0
  9
$PELEVATION
 40
0.0
  9
$THICKNESS
 40
0.0
  9
$LIMCHECK
 70
     0
  9
$CHAMFERA
 40
0.0
  9
$CHAMFERB
 40
0.0
  9
$CHAMFERC
 40
0.0
  9
$CHAMFERD
 40
0.0
  9
$SKPOLY
 70
     0
  9
$TDCREATE
 40
2455434.724808658
  9
$TDUCREATE
 40
2455434.391475324
  9
$TDUPDATE
 40
2458564.688750486
  9
$TDUUPDATE
 40
2458564.355417153
  9
$TDINDWG
 40
0.5799082986
  9
$TDUSRTIMER
 40
0.5798911574
  9
$USRTIMER
 70
     1
  9
$ANGBASE
 50
0.0
  9
$ANGDIR
 70
     0
  9
$PDMODE
 70
     0
  9
$PDSIZE
 40
0.0
  9
$PLINEWID
 40
0.0
  9
$SPLFRAME
 70
     0
  9
$SPLINETYPE
 70
     6
  9
$SPLINESEGS
 70
     8
  9
$HANDSEED
  5
79E8
  9
$SURFTAB1
 70
     6
  9
$SURFTAB2
 70
     6
  9
$SURFTYPE
 70
     6
  9
$SURFU
 70
     6
  9
$SURFV
 70
     6
  9
$UCSBASE
  2

  9
$UCSNAME
  2

  9
$UCSORG
 10
0.0
 20
0.0
 30
0.0
  9
$UCSXDIR
 10
1.0
 20
0.0
 30
0.0
  9
$UCSYDIR
 10
0.0
 20
1.0
 30
0.0
  9
$UCSORTHOREF
  2

  9
$UCSORTHOVIEW
 70
     0
  9
$UCSORGTOP
 10
0.0
 20
0.0
 30
0.0
  9
$UCSORGBOTTOM
 10
0.0
 20
0.0
 30
0.0
  9
$UCSORGLEFT
 10
0.0
 20
0.0
 30
0.0
  9
$UCSORGRIGHT
 10
0.0
 20
0.0
 30
0.0
  9
$UCSORGFRONT
 10
0.0
 20
0.0
 30
0.0
  9
$UCSORGBACK
 10
0.0
 20
0.0
 30
0.0
  9
$PUCSBASE
  2

  9
$PUCSNAME
  2

  9
$PUCSORG
 10
0.0
 20
0.0
 30
0.0
  9
$PUCSXDIR
 10
1.0
 20
0.0
 30
0.0
  9
$PUCSYDIR
 10
0.0
 20
1.0
 30
0.0
  9
$PUCSORTHOREF
  2

  9
$PUCSORTHOVIEW
 70
     0
  9
$PUCSORGTOP
 10
0.0
 20
0.0
 30
0.0
  9
$PUCSORGBOTTOM
 10
0.0
 20
0.0
 30
0.0
  9
$PUCSORGLEFT
 10
0.0
 20
0.0
 30
0.0
  9
$PUCSORGRIGHT
 10
0.0
 20
0.0
 30
0.0
  9
$PUCSORGFRONT
 10
0.0
 20
0.0
 30
0.0
  9
$PUCSORGBACK
 10
0.0
 20
0.0
 30
0.0
  9
$USERI1
 70
     0
  9
$USERI2
 70
     0
  9
$USERI3
 70
     0
  9
$USERI4
 70
     0
  9
$USERI5
 70
     0
  9
$USERR1
 40
0.0
  9
$USERR2
 40
0.0
  9
$USERR3
 40
0.0
  9
$USERR4
 40
0.0
  9
$USERR5
 40
2.5
  9
$WORLDVIEW
 70
     1
  9
$SHADEDGE
 70
     3
  9
$SHADEDIF
 70
    70
  9
$TILEMODE
 70
     1
  9
$MAXACTVP
 70
    64
  9
$PINSBASE
 10
0.0
 20
0.0
 30
0.0
  9
$PLIMCHECK
 70
     0
  9
$PEXTMIN
 10
1.000000000000000E+20
 20
1.000000000000000E+20
 30
1.000000000000000E+20
  9
$PEXTMAX
 10
-1.000000000000000E+20
 20
-1.000000000000000E+20
 30
-1.000000000000000E+20
  9
$PLIMMIN
 10
0.0
 20
0.0
  9
$PLIMMAX
 10
12.0
 20
9.0
  9
$UNITMODE
 70
     0
  9
$VISRETAIN
 70
     1
  9
$PLINEGEN
 70
     0
  9
$PSLTSCALE
 70
     1
  9
$TREEDEPTH
 70
  3020
  9
$CMLSTYLE
  2
Standard
  9
$CMLJUST
 70
     0
  9
$CMLSCALE
 40
1.0
  9
$PROXYGRAPHICS
 70
     1
  9
$MEASUREMENT
 70
     0
  9
$CELWEIGHT
370
    -1
  9
$ENDCAPS
280
     0
  9
$JOINSTYLE
280
     0
  9
$LWDISPLAY
290
     0
  9
$INSUNITS
 70
     0
  9
$HYPERLINKBASE
  1

  9
$STYLESHEET
  1

  9
$XEDIT
290
     1
  9
$CEPSNTYPE
380
     0
  9
$PSTYLEMODE
290
     1
  9
$FINGERPRINTGUID
  2
{7BAC09DB-C4D0-41DB-8C07-4C6808ADD930}
  9
$VERSIONGUID
  2
{B3CD53A3-1106-4E1F-AA42-75B7F03DCCCC}
  9
$EXTNAMES
290
     1
  9
$PSVPSCALE
 40
0.0
  9
$OLESTARTUP
290
     0
  0
ENDSEC
  0
SECTION
  2
CLASSES
  0
CLASS
  1
ACDBDICTIONARYWDFLT
  2
AcDbDictionaryWithDefault
  3
ObjectDBX Classes
 90
        0
280
     0
281
     0
  0
CLASS
  1
MATERIAL
  2
AcDbMaterial
  3
ObjectDBX Classes
 90
     1153
280
     0
281
     0
  0
CLASS
  1
VISUALSTYLE
  2
AcDbVisualStyle
  3
ObjectDBX Classes
 90
     4095
280
     0
281
     0
  0
CLASS
  1
SCALE
  2
AcDbScale
  3
ObjectDBX Classes
 90
     1153
280
     0
281
     0
  0
CLASS
  1
TABLESTYLE
  2
AcDbTableStyle
  3
ObjectDBX Classes
 90
     4095
280
     0
281
     0
  0
CLASS
  1
MLEADERSTYLE
  2
AcDbMLeaderStyle
  3
ACDB_MLEADERSTYLE_CLASS
 90
     4095
280
     0
281
     0
  0
CLASS
  1
VLO-VL
  2
vlo_VL
  3
VL|AutoLISP based application
 90
      129
280
     0
281
     0
  0
CLASS
  1
DICTIONARYVAR
  2
AcDbDictionaryVar
  3
ObjectDBX Classes
 90
        0
280
     0
281
     0
  0
CLASS
  1
CELLSTYLEMAP
  2
AcDbCellStyleMap
  3
ObjectDBX Classes
 90
     1152
280
     0
281
     0
  0
CLASS
  1
DIMASSOC
  2
AcDbDimAssoc
  3
"AcDbDimAssoc|Product Desc:     AcDim ARX App For Dimension|Company:          Autodesk, Inc.|WEB Address:      www.autodesk.com"
 90
    32768
280
     0
281
     0
  0
CLASS
  1
SORTENTSTABLE
  2
AcDbSortentsTable
  3
ObjectDBX Classes
 90
        0
280
     0
281
     0
  0
CLASS
  1
ACDBPLACEHOLDER
  2
AcDbPlaceHolder
  3
ObjectDBX Classes
 90
        0
280
     0
281
     0
  0
CLASS
  1
LAYOUT
  2
AcDbLayout
  3
ObjectDBX Classes
 90
        0
280
     0
281
     0
  0
ENDSEC
  0
SECTION
  2
TABLES
  0
TABLE
  2
VPORT
  5
5F02
330
0
100
AcDbSymbolTable
 70
     1
  0
VPORT
  5
5F73
330
5F02
100
AcDbSymbolTableRecord
100
AcDbViewportTableRecord
  2
*ACTIVE
 70
     0
 10
0.0
 20
0.0
 11
1.0
 21
1.0
 12
1176.099627044358
 22
143.3277990199652
 13
0.0
 23
0.0
 14
0.5
 24
0.5
 15
0.5
 25
0.5
 16
0.0
 26
0.0
 36
1.0
 17
0.0
 27
0.0
 37
0.0
 40
104.8310941333893
 41
1.532623169107856
 42
50.0
 43
0.0
 44
0.0
 50
0.0
 51
0.0
 71
     0
 72
  1000
 73
     1
 74
     3
 75
     0
 76
     0
 77
     0
 78
     0
281
     0
 65
     1
110
0.0
120
0.0
130
0.0
111
1.0
121
0.0
131
0.0
112
0.0
122
1.0
132
0.0
 79
     0
146
0.0
  0
ENDTAB
  0
TABLE
  2
LTYPE
  5
5EFF
330
0
100
AcDbSymbolTable
 70
     4
  0
LTYPE
  5
5F5C
330
5EFF
100
AcDbSymbolTableRecord
100
AcDbLinetypeTableRecord
  2
ByBlock
 70
     0
  3

 72
    65
 73
     0
 40
0.0
  0
LTYPE
  5
5F5D
330
5EFF
100
AcDbSymbolTableRecord
100
AcDbLinetypeTableRecord
  2
ByLayer
 70
     0
  3

 72
    65
 73
     0
 40
0.0
  0
LTYPE
  5
5F5E
330
5EFF
100
AcDbSymbolTableRecord
100
AcDbLinetypeTableRecord
  2
CONTINUOUS
 70
     0
  3
Solid line
 72
    65
 73
     0
 40
0.0
  0
LTYPE
  5
5F74
330
5EFF
100
AcDbSymbolTableRecord
100
AcDbLinetypeTableRecord
  2
CENTER2
 70
     0
  3
Center (.5x) ___ _ ___ _ ___ _ ___ _ ___ _ ___
 72
    65
 73
     4
 40
28.575
 49
19.05
 74
     0
 49
-3.174999999999998
 74
     0
 49
3.174999999999998
 74
     0
 49
-3.174999999999998
 74
     0
  0
LTYPE
  5
5F75
330
5EFF
100
AcDbSymbolTableRecord
100
AcDbLinetypeTableRecord
  2
HIDDEN2
 70
     0
  3
Hidden (.5x) _ _ _ _ _ _ _ _ _ _ _ _ _ _ _ _ _
 72
    65
 73
     2
 40
4.762499999999998
 49
3.174999999999998
 74
     0
 49
-1.587499999999999
 74
     0
  0
ENDTAB
  0
TABLE
  2
LAYER
  5
5EFC
102
{ACAD_XDICTIONARY
360
61B7
102
}
330
0
100
AcDbSymbolTable
 70
     8
  0
LAYER
  5
5F56
102
{ACAD_XDICTIONARY
360
60F4
102
}
330
5EFC
100
AcDbSymbolTableRecord
100
AcDbLayerTableRecord
  2
0
 70
     0
 62
     7
  6
CONTINUOUS
370
    -3
390
5F09
  0
LAYER
  5
5F72
102
{ACAD_XDICTIONARY
360
60F6
102
}
330
5EFC
100
AcDbSymbolTableRecord
100
AcDbLayerTableRecord
  2
标注
 70
     0
 62
    80
  6
CONTINUOUS
370
    -3
390
5F09
  0
LAYER
  5
5F7D
102
{ACAD_XDICTIONARY
360
60F8
102
}
330
5EFC
100
AcDbSymbolTableRecord
100
AcDbLayerTableRecord
  2
中心线
 70
     0
 62
     1
  6
CENTER2
370
    -3
390
5F09
  0
LAYER
  5
5F7E
102
{ACAD_XDICTIONARY
360
60FA
102
}
330
5EFC
100
AcDbSymbolTableRecord
100
AcDbLayerTableRecord
  2
虚线
 70
     0
 62
     4
  6
HIDDEN2
370
    -3
390
5F09
  0
LAYER
  5
5F7F
330
5EFC
100
AcDbSymbolTableRecord
100
AcDbLayerTableRecord
  2
DEFPOINTS
 70
     0
 62
     7
  6
CONTINUOUS
290
     0
370
    -3
390
5F09
  0
LAYER
  5
5F80
102
{ACAD_XDICTIONARY
360
60FC
102
}
330
5EFC
100
AcDbSymbolTableRecord
100
AcDbLayerTableRecord
  2
细实线
 70
     0
 62
     7
  6
CONTINUOUS
370
    -3
390
5F09
  0
LAYER
  5
61B1
102
{ACAD_XDICTIONARY
360
61B2
102
}
330
5EFC
100
AcDbSymbolTableRecord
100
AcDbLayerTableRecord
  2
粗实线
 70
     0
 62
     7
  6
CONTINUOUS
370
    35
390
5F09
  0
LAYER
  5
6B9C
102
{ACAD_XDICTIONARY
360
6B9D
102
}
330
5EFC
100
AcDbSymbolTableRecord
100
AcDbLayerTableRecord
  2
截面层
 70
     0
 62
     6
  6
CONTINUOUS
370
    13
390
5F09
  0
ENDTAB
  0
TABLE
  2
STYLE
  5
5EFD
330
0
100
AcDbSymbolTable
 70
     2
  0
STYLE
  5
5F57
330
5EFD
100
AcDbSymbolTableRecord
100
AcDbTextStyleTableRecord
  2
STANDARD
 70
     0
 40
0.0
 41
1.0
 50
0.0
 71
     0
 42
0.2
  3
arial.ttf
  4

1001
ACAD
1000
Arial
1071
       34
  0
STYLE
  5
751B
330
5EFD
100
AcDbSymbolTableRecord
100
AcDbTextStyleTableRecord
  2
Arial
 70
     0
 40
0.0
 41
1.0
 50
0.0
 71
     0
 42
0.2
  3
arial.ttf
  4

1001
ACAD
1000
Arial
1071
       34
  0
ENDTAB
  0
TABLE
  2
VIEW
  5
5F00
330
0
100
AcDbSymbolTable
 70
     0
  0
ENDTAB
  0
TABLE
  2
UCS
  5
5F01
330
0
100
AcDbSymbolTable
 70
     0
  0
ENDTAB
  0
TABLE
  2
APPID
  5
5F03
330
0
100
AcDbSymbolTable
 70
    30
  0
APPID
  5
5F58
330
5F03
100
AcDbSymbolTableRecord
100
AcDbRegAppTableRecord
  2
ACAD
 70
     0
  0
APPID
  5
5F5F
330
5F03
100
AcDbSymbolTableRecord
100
AcDbRegAppTableRecord
  2
ACADANNOTATIVE
 70
     0
  0
APPID
  5
5F69
330
5F03
100
AcDbSymbolTableRecord
100
AcDbRegAppTableRecord
  2
ACAD_MLEADERVER
 70
     0
  0
APPID
  5
5F84
330
5F03
100
AcDbSymbolTableRecord
100
AcDbRegAppTableRecord
  2
ACAECLAYERSTANDARD
 70
     0
  0
APPID
  5
5F85
330
5F03
100
AcDbSymbolTableRecord
100
AcDbRegAppTableRecord
  2
ACAD_DSTYLE_DIMEXT_LENGTH
 70
     0
  0
APPID
  5
5F86
330
5F03
100
AcDbSymbolTableRecord
100
AcDbRegAppTableRecord
  2
ACAD_DSTYLE_DIMEXT_ENABLED
 70
     0
  0
APPID
  5
5F87
330
5F03
100
AcDbSymbolTableRecord
100
AcDbRegAppTableRecord
  2
ACAD_DSTYLE_DIMJOGGED_JOGA
 70
     0
  0
APPID
  5
5F88
330
5F03
100
AcDbSymbolTableRecord
100
AcDbRegAppTableRecord
  2
ACAD_DSTYLE_DIMARC_LENGTH_
 70
     0
  0
APPID
  5
5F89
330
5F03
100
AcDbSymbolTableRecord
100
AcDbRegAppTableRecord
  2
ACAD_PSEXT
 70
     0
  0
APPID
  5
5F8A
330
5F03
100
AcDbSymbolTableRecord
100
AcDbRegAppTableRecord
  2
MCAD_NO_VIS
 70
     0
  0
APPID
  5
5F8B
330
5F03
100
AcDbSymbolTableRecord
100
AcDbRegAppTableRecord
  2
ACAD_TEMP_GRAPHIC
 70
     0
  0
APPID
  5
5F8C
330
5F03
100
AcDbSymbolTableRecord
100
AcDbRegAppTableRecord
  2
AD_DRAW
 70
     0
  0
APPID
  5
5F8D
330
5F03
100
AcDbSymbolTableRecord
100
AcDbRegAppTableRecord
  2
ACATTRIBSERVICES
 70
     0
  0
APPID
  5
5F8E
330
5F03
100
AcDbSymbolTableRecord
100
AcDbRegAppTableRecord
  2
DESIGNERASSEMBLIES
 70
     0
  0
APPID
  5
5F8F
330
5F03
100
AcDbSymbolTableRecord
100
AcDbRegAppTableRecord
  2
ACADM_DIM_EDIT
 70
     0
  0
APPID
  5
5F90
330
5F03
100
AcDbSymbolTableRecord
100
AcDbRegAppTableRecord
  2
AMDT_DM_ADJ
 70
     0
  0
APPID
  5
5F91
330
5F03
100
AcDbSymbolTableRecord
100
AcDbRegAppTableRecord
  2
ACAD_DSTYLE_DIMJAG
 70
     0
  0
APPID
  5
5F92
330
5F03
100
AcDbSymbolTableRecord
100
AcDbRegAppTableRecord
  2
ACAD_DSTYLE_DIMBREAK
 70
     0
  0
APPID
  5
5F93
330
5F03
100
AcDbSymbolTableRecord
100
AcDbRegAppTableRecord
  2
ACAD_DSTYLE_DIMTALN
 70
     0
  0
APPID
  5
5F94
330
5F03
100
AcDbSymbolTableRecord
100
AcDbRegAppTableRecord
  2
GENIUS_GENODEF_13
 70
     0
  0
APPID
  5
5F95
330
5F03
100
AcDbSymbolTableRecord
100
AcDbRegAppTableRecord
  2
GENIUS_GENOBJ-N-FIL_13
 70
     0
  0
APPID
  5
5F96
330
5F03
100
AcDbSymbolTableRecord
100
AcDbRegAppTableRecord
  2
ACAD_EXEMPT_FROM_CAD_STANDARDS
 70
     0
  0
APPID
  5
5F97
330
5F03
100
AcDbSymbolTableRecord
100
AcDbRegAppTableRecord
  2
ACAD_DSTYLE_DIM_LINETYPE
 70
     0
  0
APPID
  5
5F98
330
5F03
100
AcDbSymbolTableRecord
100
AcDbRegAppTableRecord
  2
ACAD_DSTYLE_DIM_EXT1_LINETYPE
 70
     0
  0
APPID
  5
5F99
330
5F03
100
AcDbSymbolTableRecord
100
AcDbRegAppTableRecord
  2
ACAD_DSTYLE_DIM_EXT2_LINETYPE
 70
     0
  0
APPID
  5
5F9A
330
5F03
100
AcDbSymbolTableRecord
100
AcDbRegAppTableRecord
  2
ACAD_DSTYLE_DIMRADIAL_EXTENSION
 70
     0
  0
APPID
  5
6488
330
5F03
100
AcDbSymbolTableRecord
100
AcDbRegAppTableRecord
  2
AcadAnnoPO
 70
     0
  0
APPID
  5
6F89
330
5F03
100
AcDbSymbolTableRecord
100
AcDbRegAppTableRecord
  2
GENIUS_GENFIL_13
 70
     0
  0
APPID
  5
6F8A
330
5F03
100
AcDbSymbolTableRecord
100
AcDbRegAppTableRecord
  2
GENIUS_GENOBJ-N-CHA_13
 70
     0
  0
APPID
  5
751D
330
5F03
100
AcDbSymbolTableRecord
100
AcDbRegAppTableRecord
  2
ACAD_DSTYLE_DIMJOGGED_JOGANGLE_SYMBOL
 70
     0
  0
ENDTAB
  0
TABLE
  2
DIMSTYLE
  5
5F04
330
0
100
AcDbSymbolTable
 70
     7
100
AcDbDimStyleTable
 71
     2
340
5F9B
340
5F59
  0
DIMSTYLE
105
5F59
330
5F04
100
AcDbSymbolTableRecord
100
AcDbDimStyleTableRecord
  2
STANDARD
 70
     0
 41
0.65
 73
     0
 74
     0
140
0.65
176
     3
177
     3
178
     3
271
     3
272
     3
276
     2
277
     5
279
     2
284
     8
285
     8
286
     8
340
5F57
371
    13
372
    13
1001
ACAD_DSTYLE_DIMJAG
1070
   388
1040
1.5
1001
ACAD_DSTYLE_DIMTALN
1070
   392
1070
     0
1001
ACAD_DSTYLE_DIM_LINETYPE
1070
   380
1005
5F5E
1001
ACAD_DSTYLE_DIM_EXT1_LINETYPE
1070
   381
1005
5F5E
1001
ACAD_DSTYLE_DIM_EXT2_LINETYPE
1070
   382
1005
5F5E
  0
DIMSTYLE
105
5F9B
102
{ACAD_REACTORS
330
7849
330
784A
330
784B
330
783F
330
7840
330
7841
330
7844
330
7846
330
7847
330
7848
330
795B
330
7973
330
7974
102
}
330
5F04
100
AcDbSymbolTableRecord
100
AcDbDimStyleTableRecord
  2
副本STANDARD
 70
     0
  3
"
  4
"
 41
0.65
 42
0.88
 43
0.015
 44
0.32
 73
     0
 74
     0
 78
     8
140
0.65
143
0.03937
147
0.3
171
     1
172
     1
176
   256
177
   256
178
   256
271
     3
272
     3
274
     1
276
     2
277
     5
279
     2
284
     8
285
     8
286
     8
340
5F57
1001
ACAD_DSTYLE_DIMJAG
1070
   388
1040
1.5
1001
ACAD_DSTYLE_DIMTALN
1070
   392
1070
     0
  0
DIMSTYLE
105
6F86
330
5F04
100
AcDbSymbolTableRecord
100
AcDbDimStyleTableRecord
  2
中14+
 70
     0
  4
"
 41
14.0
 42
10.0
 43
1.0
 44
2.0
 73
     0
 74
     0
 78
     8
140
14.0
141
2.0
143
0.03937007874016
147
5.0
171
     3
172
     1
177
   256
179
     1
271
     1
272
     1
273
     7
274
     3
278
    44
283
     0
284
     8
340
5F57
1001
ACAD_DSTYLE_DIMBREAK
1070
   391
1040
0.2
1001
ACAD_DSTYLE_DIMJAG
1070
   388
1040
1.5
1001
ACAD_DSTYLE_DIMTALN
1070
   392
1070
     0
  0
DIMSTYLE
105
6F87
330
5F04
100
AcDbSymbolTableRecord
100
AcDbDimStyleTableRecord
  2
毫米英寸Standard
 70
     0
  3
mm
  4
"
 41
14.0
 42
20.0
 44
8.0
 73
     0
 74
     0
 78
     8
 79
     2
140
14.0
143
0.03937
147
8.0
170
     1
171
     3
172
     1
176
   256
177
   256
178
   256
179
     1
271
     1
272
     1
273
     7
274
     3
278
    44
340
5F57
1001
ACAD_DSTYLE_DIMBREAK
1070
   391
1040
0.125
1001
ACAD_DSTYLE_DIMJAG
1070
   388
1040
1.5
1001
ACAD_DSTYLE_DIMTALN
1070
   392
1070
     0
  0
DIMSTYLE
105
6F88
330
5F04
100
AcDbSymbolTableRecord
100
AcDbDimStyleTableRecord
  2
放大3倍
 70
     0
  4
"
 41
14.0
 42
10.0
 43
1.0
 44
2.0
 73
     0
 74
     0
 78
     8
140
14.0
141
2.0
143
0.03937007874016
144
0.333333333333333
147
5.0
171
     3
172
     1
176
     3
177
   256
178
     3
179
     1
271
     1
272
     1
273
     7
274
     3
278
    44
283
     0
284
     8
340
5F57
371
     9
372
     9
1001
ACAD_DSTYLE_DIMBREAK
1070
   391
1040
0.2
1001
ACAD_DSTYLE_DIMJAG
1070
   388
1040
1.5
1001
ACAD_DSTYLE_DIMTALN
1070
   392
1070
     0
1001
ACAD_DSTYLE_DIM_LINETYPE
1070
   380
1005
5F5E
1001
ACAD_DSTYLE_DIM_EXT1_LINETYPE
1070
   381
1005
5F5E
1001
ACAD_DSTYLE_DIM_EXT2_LINETYPE
1070
   382
1005
5F5E
  0
DIMSTYLE
105
751C
330
5F04
100
AcDbSymbolTableRecord
100
AcDbDimStyleTableRecord
  2
英寸
 70
     0
  3
"
  4
"
 41
16.0
 42
22.0
 44
8.0
 73
     0
 74
     0
 78
     8
 79
     2
140
16.0
143
0.03937
144
0.03937007874
147
5.0
171
     3
172
     1
176
   256
177
   256
178
   256
179
     1
271
     3
272
     3
273
     7
274
     3
276
     2
277
     5
278
    44
340
751B
1001
ACAD_DSTYLE_DIMJOGGED_JOGANGLE_SYMBOL
1070
   384
1040
0.7853981633974483
1001
ACAD_DSTYLE_DIMJAG
1070
   388
1040
1.5
1001
ACAD_DSTYLE_DIMTALN
1070
   392
1070
     0
1001
ACAD_DSTYLE_DIMEXT_LENGTH
1070
   378
1040
8.0
  0
ENDTAB
  0
TABLE
  2
BLOCK_RECORD
  5
5EFB
330
0
100
AcDbSymbolTable
 70
    72
  0
BLOCK_RECORD
  5
5F6E
102
{ACAD_XDICTIONARY
360
654F
102
}
330
5EFB
100
AcDbSymbolTableRecord
100
AcDbBlockTableRecord
  2
*Model_Space
340
5F71
  0
BLOCK_RECORD
  5
5F6A
330
5EFB
100
AcDbSymbolTableRecord
100
AcDbBlockTableRecord
  2
*Paper_Space
340
5F6D
  0
BLOCK_RECORD
  5
6D74
330
5EFB
100
AcDbSymbolTableRecord
100
AcDbBlockTableRecord
  2
*D0
340
0
  0
BLOCK_RECORD
  5
6D82
330
5EFB
100
AcDbSymbolTableRecord
100
AcDbBlockTableRecord
  2
*D1
340
0
  0
BLOCK_RECORD
  5
6D90
330
5EFB
100
AcDbSymbolTableRecord
100
AcDbBlockTableRecord
  2
*D2
340
0
  0
BLOCK_RECORD
  5
6DAF
330
5EFB
100
AcDbSymbolTableRecord
100
AcDbBlockTableRecord
  2
*D3
340
0
  0
BLOCK_RECORD
  5
6DB9
330
5EFB
100
AcDbSymbolTableRecord
100
AcDbBlockTableRecord
  2
*D4
340
0
  0
BLOCK_RECORD
  5
6DC3
330
5EFB
100
AcDbSymbolTableRecord
100
AcDbBlockTableRecord
  2
*D5
340
0
  0
BLOCK_RECORD
  5
6DF7
330
5EFB
100
AcDbSymbolTableRecord
100
AcDbBlockTableRecord
  2
*D6
340
0
  0
BLOCK_RECORD
  5
6E05
330
5EFB
100
AcDbSymbolTableRecord
100
AcDbBlockTableRecord
  2
*D7
340
0
  0
BLOCK_RECORD
  5
6E13
330
5EFB
100
AcDbSymbolTableRecord
100
AcDbBlockTableRecord
  2
*D8
340
0
  0
BLOCK_RECORD
  5
6E21
330
5EFB
100
AcDbSymbolTableRecord
100
AcDbBlockTableRecord
  2
*D9
340
0
  0
BLOCK_RECORD
  5
6E2F
330
5EFB
100
AcDbSymbolTableRecord
100
AcDbBlockTableRecord
  2
*D10
340
0
  0
BLOCK_RECORD
  5
6E3D
330
5EFB
100
AcDbSymbolTableRecord
100
AcDbBlockTableRecord
  2
*D11
340
0
  0
BLOCK_RECORD
  5
6E4B
330
5EFB
100
AcDbSymbolTableRecord
100
AcDbBlockTableRecord
  2
*D12
340
0
  0
BLOCK_RECORD
  5
6E59
330
5EFB
100
AcDbSymbolTableRecord
100
AcDbBlockTableRecord
  2
*D13
340
0
  0
BLOCK_RECORD
  5
6E7B
330
5EFB
100
AcDbSymbolTableRecord
100
AcDbBlockTableRecord
  2
*D14
340
0
  0
BLOCK_RECORD
  5
6E89
330
5EFB
100
AcDbSymbolTableRecord
100
AcDbBlockTableRecord
  2
*D15
340
0
  0
BLOCK_RECORD
  5
6E93
330
5EFB
100
AcDbSymbolTableRecord
100
AcDbBlockTableRecord
  2
*D16
340
0
  0
BLOCK_RECORD
  5
707E
330
5EFB
100
AcDbSymbolTableRecord
100
AcDbBlockTableRecord
  2
*D17
340
0
  0
BLOCK_RECORD
  5
708C
330
5EFB
100
AcDbSymbolTableRecord
100
AcDbBlockTableRecord
  2
*D18
340
0
  0
BLOCK_RECORD
  5
70C3
330
5EFB
100
AcDbSymbolTableRecord
100
AcDbBlockTableRecord
  2
*D19
340
0
  0
BLOCK_RECORD
  5
70CD
330
5EFB
100
AcDbSymbolTableRecord
100
AcDbBlockTableRecord
  2
*D20
340
0
  0
BLOCK_RECORD
  5
70DB
330
5EFB
100
AcDbSymbolTableRecord
100
AcDbBlockTableRecord
  2
*D21
340
0
  0
BLOCK_RECORD
  5
70E9
330
5EFB
100
AcDbSymbolTableRecord
100
AcDbBlockTableRecord
  2
*D22
340
0
  0
BLOCK_RECORD
  5
70F7
330
5EFB
100
AcDbSymbolTableRecord
100
AcDbBlockTableRecord
  2
*D23
340
0
  0
BLOCK_RECORD
  5
7118
330
5EFB
100
AcDbSymbolTableRecord
100
AcDbBlockTableRecord
  2
*D24
340
0
  0
BLOCK_RECORD
  5
7128
330
5EFB
100
AcDbSymbolTableRecord
100
AcDbBlockTableRecord
  2
*D25
340
0
  0
BLOCK_RECORD
  5
7136
330
5EFB
100
AcDbSymbolTableRecord
100
AcDbBlockTableRecord
  2
*D26
340
0
  0
BLOCK_RECORD
  5
7144
330
5EFB
100
AcDbSymbolTableRecord
100
AcDbBlockTableRecord
  2
*D27
340
0
  0
BLOCK_RECORD
  5
727A
330
5EFB
100
AcDbSymbolTableRecord
100
AcDbBlockTableRecord
  2
*D28
340
0
  0
BLOCK_RECORD
  5
7288
330
5EFB
100
AcDbSymbolTableRecord
100
AcDbBlockTableRecord
  2
*D29
340
0
  0
BLOCK_RECORD
  5
7384
330
5EFB
100
AcDbSymbolTableRecord
100
AcDbBlockTableRecord
  2
*D30
340
0
  0
BLOCK_RECORD
  5
7392
330
5EFB
100
AcDbSymbolTableRecord
100
AcDbBlockTableRecord
  2
*D31
340
0
  0
BLOCK_RECORD
  5
73AB
330
5EFB
100
AcDbSymbolTableRecord
100
AcDbBlockTableRecord
  2
*D32
340
0
  0
BLOCK_RECORD
  5
73B5
330
5EFB
100
AcDbSymbolTableRecord
100
AcDbBlockTableRecord
  2
*D33
340
0
  0
BLOCK_RECORD
  5
73C3
330
5EFB
100
AcDbSymbolTableRecord
100
AcDbBlockTableRecord
  2
*D34
340
0
  0
BLOCK_RECORD
  5
73D1
330
5EFB
100
AcDbSymbolTableRecord
100
AcDbBlockTableRecord
  2
*D35
340
0
  0
BLOCK_RECORD
  5
73DF
330
5EFB
100
AcDbSymbolTableRecord
100
AcDbBlockTableRecord
  2
*D36
340
0
  0
BLOCK_RECORD
  5
73ED
330
5EFB
100
AcDbSymbolTableRecord
100
AcDbBlockTableRecord
  2
*D37
340
0
  0
BLOCK_RECORD
  5
7403
330
5EFB
100
AcDbSymbolTableRecord
100
AcDbBlockTableRecord
  2
*D38
340
0
  0
BLOCK_RECORD
  5
7411
330
5EFB
100
AcDbSymbolTableRecord
100
AcDbBlockTableRecord
  2
*D39
340
0
  0
BLOCK_RECORD
  5
741F
330
5EFB
100
AcDbSymbolTableRecord
100
AcDbBlockTableRecord
  2
*D40
340
0
  0
BLOCK_RECORD
  5
764F
330
5EFB
100
AcDbSymbolTableRecord
100
AcDbBlockTableRecord
  2
*D43
340
0
  0
BLOCK_RECORD
  5
765D
330
5EFB
100
AcDbSymbolTableRecord
100
AcDbBlockTableRecord
  2
*D44
340
0
  0
BLOCK_RECORD
  5
766B
330
5EFB
100
AcDbSymbolTableRecord
100
AcDbBlockTableRecord
  2
*D45
340
0
  0
BLOCK_RECORD
  5
7679
330
5EFB
100
AcDbSymbolTableRecord
100
AcDbBlockTableRecord
  2
*D46
340
0
  0
BLOCK_RECORD
  5
7687
330
5EFB
100
AcDbSymbolTableRecord
100
AcDbBlockTableRecord
  2
*D47
340
0
  0
BLOCK_RECORD
  5
7695
330
5EFB
100
AcDbSymbolTableRecord
100
AcDbBlockTableRecord
  2
*D48
340
0
  0
BLOCK_RECORD
  5
76A3
330
5EFB
100
AcDbSymbolTableRecord
100
AcDbBlockTableRecord
  2
*D49
340
0
  0
BLOCK_RECORD
  5
76C9
330
5EFB
100
AcDbSymbolTableRecord
100
AcDbBlockTableRecord
  2
*D50
340
0
  0
BLOCK_RECORD
  5
76D7
330
5EFB
100
AcDbSymbolTableRecord
100
AcDbBlockTableRecord
  2
*D51
340
0
  0
BLOCK_RECORD
  5
76E5
330
5EFB
100
AcDbSymbolTableRecord
100
AcDbBlockTableRecord
  2
*D52
340
0
  0
BLOCK_RECORD
  5
774F
330
5EFB
100
AcDbSymbolTableRecord
100
AcDbBlockTableRecord
  2
*D53
340
0
  0
BLOCK_RECORD
  5
7759
330
5EFB
100
AcDbSymbolTableRecord
100
AcDbBlockTableRecord
  2
*D54
340
0
  0
BLOCK_RECORD
  5
7763
330
5EFB
100
AcDbSymbolTableRecord
100
AcDbBlockTableRecord
  2
*D55
340
0
  0
BLOCK_RECORD
  5
784C
330
5EFB
100
AcDbSymbolTableRecord
100
AcDbBlockTableRecord
  2
*D56
340
0
  0
BLOCK_RECORD
  5
7855
330
5EFB
100
AcDbSymbolTableRecord
100
AcDbBlockTableRecord
  2
*D57
340
0
  0
BLOCK_RECORD
  5
785E
330
5EFB
100
AcDbSymbolTableRecord
100
AcDbBlockTableRecord
  2
*D58
340
0
  0
BLOCK_RECORD
  5
7867
330
5EFB
100
AcDbSymbolTableRecord
100
AcDbBlockTableRecord
  2
*D59
340
0
  0
BLOCK_RECORD
  5
7874
330
5EFB
100
AcDbSymbolTableRecord
100
AcDbBlockTableRecord
  2
*D60
340
0
  0
BLOCK_RECORD
  5
7881
330
5EFB
100
AcDbSymbolTableRecord
100
AcDbBlockTableRecord
  2
*D61
340
0
  0
BLOCK_RECORD
  5
788E
330
5EFB
100
AcDbSymbolTableRecord
100
AcDbBlockTableRecord
  2
*D62
340
0
  0
BLOCK_RECORD
  5
789B
330
5EFB
100
AcDbSymbolTableRecord
100
AcDbBlockTableRecord
  2
*D63
340
0
  0
BLOCK_RECORD
  5
78A8
330
5EFB
100
AcDbSymbolTableRecord
100
AcDbBlockTableRecord
  2
*D64
340
0
  0
BLOCK_RECORD
  5
78B5
330
5EFB
100
AcDbSymbolTableRecord
100
AcDbBlockTableRecord
  2
*D65
340
0
  0
BLOCK_RECORD
  5
78C2
330
5EFB
100
AcDbSymbolTableRecord
100
AcDbBlockTableRecord
  2
*D66
340
0
  0
BLOCK_RECORD
  5
78CF
330
5EFB
100
AcDbSymbolTableRecord
100
AcDbBlockTableRecord
  2
*D67
340
0
  0
BLOCK_RECORD
  5
78DC
330
5EFB
100
AcDbSymbolTableRecord
100
AcDbBlockTableRecord
  2
*D68
340
0
  0
BLOCK_RECORD
  5
795C
330
5EFB
100
AcDbSymbolTableRecord
100
AcDbBlockTableRecord
  2
*D69
340
0
  0
BLOCK_RECORD
  5
7975
330
5EFB
100
AcDbSymbolTableRecord
100
AcDbBlockTableRecord
  2
*D70
340
0
  0
BLOCK_RECORD
  5
7982
330
5EFB
100
AcDbSymbolTableRecord
100
AcDbBlockTableRecord
  2
*D71
340
0
  0
ENDTAB
  0
ENDSEC
  0
SECTION
  2
BLOCKS
  0
BLOCK
  5
5F6F
330
5F6E
100
AcDbEntity
  8
0
100
AcDbBlockBegin
  2
*Model_Space
 70
     0
 10
0.0
 20
0.0
 30
0.0
  3
*Model_Space
  1

  0
ENDBLK
  5
5F70
330
5F6E
100
AcDbEntity
  8
0
100
AcDbBlockEnd
  0
BLOCK
  5
5F6B
330
5F6A
100
AcDbEntity
 67
     1
  8
0
100
AcDbBlockBegin
  2
*Paper_Space
 70
     0
 10
0.0
 20
0.0
 30
0.0
  3
*Paper_Space
  1

  0
ENDBLK
  5
5F6C
330
5F6A
100
AcDbEntity
 67
     1
  8
0
100
AcDbBlockEnd
  0
BLOCK
  5
6D75
330
6D74
100
AcDbEntity
  8
0
100
AcDbBlockBegin
  2
*D0
 70
     1
 10
0.0
 20
0.0
 30
0.0
  3
*D0
  1

  0
LINE
  5
6EA8
330
6D74
100
AcDbEntity
  8
标注
370
    -2
100
AcDbLine
 10
1010.232169094564
 20
111.8880736471611
 30
0.0
 11
1010.232169094564
 21
109.3331919395887
 31
0.0
  0
LINE
  5
6EA9
330
6D74
100
AcDbEntity
  8
标注
370
    -2
100
AcDbLine
 10
1038.889649409404
 20
111.8880736471611
 30
0.0
 11
1038.889649409404
 21
109.3331919395887
 31
0.0
  0
LINE
  5
6EAA
330
6D74
100
AcDbEntity
  8
标注
370
    -2
100
AcDbLine
 10
1010.882169094564
 20
109.6531919395888
 30
0.0
 11
1022.872010889092
 21
109.6531919395888
 31
0.0
  0
LINE
  5
6EAB
330
6D74
100
AcDbEntity
  8
标注
370
    -2
100
AcDbLine
 10
1038.239649409404
 20
109.6531919395888
 30
0.0
 11
1026.249807614876
 21
109.6531919395888
 31
0.0
  0
SOLID
  5
6EAC
330
6D74
100
AcDbEntity
  8
标注
100
AcDbTrace
 10
1010.882169094564
 20
109.7615252729221
 30
0.0
 11
1010.882169094564
 21
109.5448586062554
 31
0.0
 12
1010.232169094564
 22
109.6531919395888
 32
0.0
 13
1010.232169094564
 23
109.6531919395888
 33
0.0
  0
SOLID
  5
6EAD
330
6D74
100
AcDbEntity
  8
标注
100
AcDbTrace
 10
1038.239649409404
 20
109.7615252729221
 30
0.0
 11
1038.239649409404
 21
109.5448586062554
 31
0.0
 12
1038.889649409404
 22
109.6531919395888
 32
0.0
 13
1038.889649409404
 23
109.6531919395888
 33
0.0
  0
MTEXT
  5
6EAE
330
6D74
100
AcDbEntity
  8
标注
100
AcDbMText
 10
1024.560909251984
 20
109.6531919395888
 30
0.0
 40
0.65
 41
0.0
 71
     5
 72
     1
  1
\A1;28 5/8"
 73
     1
 44
1.0
1001
ACAD
1000
MTEXTBEGIN
1070
    73
1070
     1
1070
    44
1040
1.0
1070
    74
1070
     0
1000
MTEXTEND
  0
POINT
  5
6EAF
330
6D74
100
AcDbEntity
  8
DEFPOINTS
 62
     0
100
AcDbPoint
 10
1010.232169094564
 20
112.7680736471611
 30
0.0
  0
POINT
  5
6EB0
330
6D74
100
AcDbEntity
  8
DEFPOINTS
 62
     0
100
AcDbPoint
 10
1038.889649409404
 20
112.7680736471611
 30
0.0
  0
POINT
  5
6EB1
330
6D74
100
AcDbEntity
  8
DEFPOINTS
 62
     0
100
AcDbPoint
 10
1038.889649409404
 20
109.6531919395888
 30
0.0
  0
ENDBLK
  5
6D76
330
6D74
100
AcDbEntity
  8
0
100
AcDbBlockEnd
  0
BLOCK
  5
6D83
330
6D82
100
AcDbEntity
  8
0
100
AcDbBlockBegin
  2
*D1
 70
     1
 10
0.0
 20
0.0
 30
0.0
  3
*D1
  1

  0
LINE
  5
6EB2
330
6D82
100
AcDbEntity
  8
标注
370
    -2
100
AcDbLine
 10
1039.297208464536
 20
112.2956327022929
 30
0.0
 11
1041.352195043713
 21
112.2956327022929
 31
0.0
  0
LINE
  5
6EB3
330
6D82
100
AcDbEntity
  8
标注
370
    -2
100
AcDbLine
 10
1039.297208464536
 20
128.4531130171908
 30
0.0
 11
1041.352195043713
 21
128.4531130171908
 31
0.0
  0
LINE
  5
6EB4
330
6D82
100
AcDbEntity
  8
标注
370
    -2
100
AcDbLine
 10
1041.032195043713
 20
112.9456327022929
 30
0.0
 11
1041.032195043713
 21
118.7216102403694
 31
0.0
  0
LINE
  5
6EB5
330
6D82
100
AcDbEntity
  8
标注
370
    -2
100
AcDbLine
 10
1041.032195043713
 20
127.8031130171908
 30
0.0
 11
1041.032195043713
 21
122.0271354791143
 31
0.0
  0
SOLID
  5
6EB6
330
6D82
100
AcDbEntity
  8
标注
100
AcDbTrace
 10
1040.92386171038
 20
112.9456327022929
 30
0.0
 11
1041.140528377046
 21
112.9456327022929
 31
0.0
 12
1041.032195043713
 22
112.2956327022929
 32
0.0
 13
1041.032195043713
 23
112.2956327022929
 33
0.0
  0
SOLID
  5
6EB7
330
6D82
100
AcDbEntity
  8
标注
100
AcDbTrace
 10
1040.92386171038
 20
127.8031130171908
 30
0.0
 11
1041.140528377046
 21
127.8031130171908
 31
0.0
 12
1041.032195043713
 22
128.4531130171908
 32
0.0
 13
1041.032195043713
 23
128.4531130171908
 33
0.0
  0
MTEXT
  5
6EB8
330
6D82
100
AcDbEntity
  8
标注
100
AcDbMText
 10
1041.032195043713
 20
120.374372859742
 30
0.0
 40
0.65
 41
0.0
 71
     5
 72
     1
  1
\A1;16 1/8"
 11
0.0000000000000001
 21
1.0
 31
0.0
 73
     1
 44
1.0
1001
ACAD
1000
MTEXTBEGIN
1070
    73
1070
     1
1070
    44
1040
1.0
1070
    74
1070
     0
1000
MTEXTEND
  0
POINT
  5
6EB9
330
6D82
100
AcDbEntity
  8
DEFPOINTS
 62
     0
100
AcDbPoint
 10
1038.417208464536
 20
112.2956327022929
 30
0.0
  0
POINT
  5
6EBA
330
6D82
100
AcDbEntity
  8
DEFPOINTS
 62
     0
100
AcDbPoint
 10
1038.417208464536
 20
128.4531130171908
 30
0.0
  0
POINT
  5
6EBB
330
6D82
100
AcDbEntity
  8
DEFPOINTS
 62
     0
100
AcDbPoint
 10
1041.032195043713
 20
128.4531130171908
 30
0.0
  0
ENDBLK
  5
6D84
330
6D82
100
AcDbEntity
  8
0
100
AcDbBlockEnd
  0
BLOCK
  5
6D91
330
6D90
100
AcDbEntity
  8
0
100
AcDbBlockBegin
  2
*D2
 70
     1
 10
0.0
 20
0.0
 30
0.0
  3
*D2
  1

  0
LINE
  5
6EBC
330
6D90
100
AcDbEntity
  8
标注
370
    -2
100
AcDbLine
 10
1009.824610039433
 20
112.2956327022929
 30
0.0
 11
1007.242350226264
 21
112.2956327022929
 31
0.0
  0
LINE
  5
6EBD
330
6D90
100
AcDbEntity
  8
标注
370
    -2
100
AcDbLine
 10
1009.824610039433
 20
130.4531130171908
 30
0.0
 11
1007.242350226264
 21
130.4531130171908
 31
0.0
  0
LINE
  5
6EBE
330
6D90
100
AcDbEntity
  8
标注
370
    -2
100
AcDbLine
 10
1007.562350226264
 20
112.9456327022929
 30
0.0
 11
1007.562350226264
 21
119.7216102403694
 31
0.0
  0
LINE
  5
6EBF
330
6D90
100
AcDbEntity
  8
标注
370
    -2
100
AcDbLine
 10
1007.562350226264
 20
129.8031130171908
 30
0.0
 11
1007.562350226264
 21
123.0271354791143
 31
0.0
  0
SOLID
  5
6EC0
330
6D90
100
AcDbEntity
  8
标注
100
AcDbTrace
 10
1007.45401689293
 20
112.9456327022929
 30
0.0
 11
1007.670683559597
 21
112.9456327022929
 31
0.0
 12
1007.562350226264
 22
112.2956327022929
 32
0.0
 13
1007.562350226264
 23
112.2956327022929
 33
0.0
  0
SOLID
  5
6EC1
330
6D90
100
AcDbEntity
  8
标注
100
AcDbTrace
 10
1007.45401689293
 20
129.8031130171908
 30
0.0
 11
1007.670683559597
 21
129.8031130171908
 31
0.0
 12
1007.562350226264
 22
130.4531130171908
 32
0.0
 13
1007.562350226264
 23
130.4531130171908
 33
0.0
  0
MTEXT
  5
6EC2
330
6D90
100
AcDbEntity
  8
标注
100
AcDbMText
 10
1007.562350226264
 20
121.374372859742
 30
0.0
 40
0.65
 41
0.0
 71
     5
 72
     1
  1
\A1;18 1/8"
 11
0.0000000000000001
 21
1.0
 31
0.0
 73
     1
 44
1.0
1001
ACAD
1000
MTEXTBEGIN
1070
    73
1070
     1
1070
    44
1040
1.0
1070
    74
1070
     0
1000
MTEXTEND
  0
POINT
  5
6EC3
330
6D90
100
AcDbEntity
  8
DEFPOINTS
 62
     0
100
AcDbPoint
 10
1010.704610039433
 20
112.2956327022929
 30
0.0
  0
POINT
  5
6EC4
330
6D90
100
AcDbEntity
  8
DEFPOINTS
 62
     0
100
AcDbPoint
 10
1010.704610039433
 20
130.4531130171908
 30
0.0
  0
POINT
  5
6EC5
330
6D90
100
AcDbEntity
  8
DEFPOINTS
 62
     0
100
AcDbPoint
 10
1007.562350226264
 20
130.4531130171908
 30
0.0
  0
ENDBLK
  5
6D92
330
6D90
100
AcDbEntity
  8
0
100
AcDbBlockEnd
  0
BLOCK
  5
6DB0
330
6DAF
100
AcDbEntity
  8
0
100
AcDbBlockBegin
  2
*D3
 70
     1
 10
0.0
 20
0.0
 30
0.0
  3
*D3
  1

  0
LINE
  5
6EC6
330
6DAF
100
AcDbEntity
  8
标注
370
    -2
100
AcDbLine
 10
1009.847727533964
 20
112.0430729253927
 30
0.0
 11
1009.351511112873
 21
111.6232285930035
 31
0.0
  0
MTEXT
  5
6EC7
330
6DAF
100
AcDbEntity
  8
标注
100
AcDbMText
 10
1008.121422579357
 20
111.0360046414869
 30
0.0
 40
0.65
 41
0.0
 71
     5
 72
     1
  1
\A1;4-R1/2"
 11
0.7634098786019736
 21
0.6459143575218933
 31
0.0
 73
     1
 44
1.0
1001
ACAD
1000
MTEXTBEGIN
1070
    73
1070
     1
1070
    44
1040
1.0
1070
    74
1070
     0
1000
MTEXTEND
  0
LINE
  5
6EC8
330
6DAF
100
AcDbEntity
  8
标注
370
    -2
100
AcDbLine
 10
1010.704610039433
 20
112.7680736471612
 30
0.0
 11
1010.343943955055
 21
112.462917257782
 31
0.0
  0
SOLID
  5
6EC9
330
6DAF
100
AcDbEntity
  8
标注
100
AcDbTrace
 10
1009.777753478566
 20
112.1257756622412
 30
0.0
 11
1009.917701589362
 21
111.9603701885441
 31
0.0
 12
1010.343943955055
 22
112.462917257782
 32
0.0
 13
1010.343943955055
 23
112.462917257782
 33
0.0
  0
POINT
  5
6ECA
330
6DAF
100
AcDbEntity
  8
DEFPOINTS
 62
     0
100
AcDbPoint
 10
1010.343943955055
 20
112.462917257782
 30
0.0
  0
POINT
  5
6ECB
330
6DAF
100
AcDbEntity
  8
DEFPOINTS
 62
     0
100
AcDbPoint
 10
1010.704610039433
 20
112.7680736471612
 30
0.0
  0
ENDBLK
  5
6DB1
330
6DAF
100
AcDbEntity
  8
0
100
AcDbBlockEnd
  0
BLOCK
  5
6DBA
330
6DB9
100
AcDbEntity
  8
0
100
AcDbBlockBegin
  2
*D4
 70
     1
 10
0.0
 20
0.0
 30
0.0
  3
*D4
  1

  0
LINE
  5
6ECC
330
6DB9
100
AcDbEntity
  8
标注
370
    -2
100
AcDbLine
 10
1024.545303572767
 20
130.9109248389289
 30
0.0
 11
1024.909030343582
 21
131.4496296153994
 31
0.0
  0
MTEXT
  5
6ECD
330
6DB9
100
AcDbEntity
  8
标注
100
AcDbMText
 10
1024.351579828208
 20
131.629011722406
 30
0.0
 40
0.65
 41
0.0
 71
     5
 72
     1
  1
\A1;R1/2"
 11
0.5595796474082685
 21
0.8287765791855113
 31
0.0
 73
     1
 44
1.0
1001
ACAD
1000
MTEXTBEGIN
1070
    73
1070
     1
1070
    44
1040
1.0
1070
    74
1070
     0
1000
MTEXTEND
  0
LINE
  5
6ECE
330
6DB9
100
AcDbEntity
  8
标注
370
    -2
100
AcDbLine
 10
1023.917208464594
 20
129.9806720722935
 30
0.0
 11
1024.181576801951
 21
130.3722200624584
 31
0.0
  0
SOLID
  5
6ECF
330
6DB9
100
AcDbEntity
  8
标注
100
AcDbTrace
 10
1024.455519443355
 20
130.9715459673982
 30
0.0
 11
1024.635087702178
 21
130.8503037104597
 31
0.0
 12
1024.181576801951
 22
130.3722200624584
 32
0.0
 13
1024.181576801951
 23
130.3722200624584
 33
0.0
  0
POINT
  5
6ED0
330
6DB9
100
AcDbEntity
  8
DEFPOINTS
 62
     0
100
AcDbPoint
 10
1024.181576801951
 20
130.3722200624584
 30
0.0
  0
POINT
  5
6ED1
330
6DB9
100
AcDbEntity
  8
DEFPOINTS
 62
     0
100
AcDbPoint
 10
1023.917208464594
 20
129.9806720722935
 30
0.0
  0
ENDBLK
  5
6DBB
330
6DB9
100
AcDbEntity
  8
0
100
AcDbBlockEnd
  0
BLOCK
  5
6DC4
330
6DC3
100
AcDbEntity
  8
0
100
AcDbBlockBegin
  2
*D5
 70
     1
 10
0.0
 20
0.0
 30
0.0
  3
*D5
  1

  0
LINE
  5
6ED2
330
6DC3
100
AcDbEntity
  8
标注
370
    -2
100
AcDbLine
 10
1024.076067768398
 20
128.0793094723327
 30
0.0
 11
1023.635583690926
 21
127.601320165451
 31
0.0
  0
MTEXT
  5
6ED3
330
6DC3
100
AcDbEntity
  8
标注
100
AcDbMText
 10
1023.402694570716
 20
128.2171821300071
 30
0.0
 40
0.65
 41
0.0
 71
     5
 72
     1
  1
\A1;R3/8"
 11
0.6776678114960708
 21
0.7353681644333852
 31
0.0
 73
     1
 44
1.0
1001
ACAD
1000
MTEXTBEGIN
1070
    73
1070
     1
1070
    44
1040
1.0
1070
    74
1070
     0
1000
MTEXTEND
  0
LINE
  5
6ED4
330
6DC3
100
AcDbEntity
  8
标注
370
    -2
100
AcDbLine
 10
1024.783350196852
 20
128.8468138045808
 30
0.0
 11
1024.51655184587
 21
128.5572987792144
 31
0.0
  0
SOLID
  5
6ED5
330
6DC3
100
AcDbEntity
  8
标注
100
AcDbTrace
 10
1023.996402883918
 20
128.1527234852448
 30
0.0
 11
1024.155732652878
 21
128.0058954594207
 31
0.0
 12
1024.51655184587
 22
128.5572987792144
 32
0.0
 13
1024.51655184587
 23
128.5572987792144
 33
0.0
  0
POINT
  5
6ED6
330
6DC3
100
AcDbEntity
  8
DEFPOINTS
 62
     0
100
AcDbPoint
 10
1024.51655184587
 20
128.5572987792144
 30
0.0
  0
POINT
  5
6ED7
330
6DC3
100
AcDbEntity
  8
DEFPOINTS
 62
     0
100
AcDbPoint
 10
1024.783350196852
 20
128.8468138045808
 30
0.0
  0
ENDBLK
  5
6DC5
330
6DC3
100
AcDbEntity
  8
0
100
AcDbBlockEnd
  0
BLOCK
  5
6DF8
330
6DF7
100
AcDbEntity
  8
0
100
AcDbBlockBegin
  2
*D6
 70
     1
 10
0.0
 20
0.0
 30
0.0
  3
*D6
  1

  0
LINE
  5
6ED8
330
6DF7
100
AcDbEntity
  8
标注
370
    -2
100
AcDbLine
 10
1009.710288124228
 20
146.5166919853646
 30
0.0
 11
1009.710288124228
 21
144.1295932028442
 31
0.0
  0
LINE
  5
6ED9
330
6DF7
100
AcDbEntity
  8
标注
370
    -2
100
AcDbLine
 10
1023.71028812417
 20
146.5166919853646
 30
0.0
 11
1023.71028812417
 21
144.1295932028442
 31
0.0
  0
LINE
  5
6EDA
330
6DF7
100
AcDbEntity
  8
标注
370
    -2
100
AcDbLine
 10
1010.360288124228
 20
144.4495932028441
 30
0.0
 11
1015.814824276995
 21
144.4495932028441
 31
0.0
  0
LINE
  5
6EDB
330
6DF7
100
AcDbEntity
  8
标注
370
    -2
100
AcDbLine
 10
1023.06028812417
 20
144.4495932028441
 30
0.0
 11
1017.605751971402
 21
144.4495932028441
 31
0.0
  0
SOLID
  5
6EDC
330
6DF7
100
AcDbEntity
  8
标注
100
AcDbTrace
 10
1010.360288124228
 20
144.5579265361775
 30
0.0
 11
1010.360288124228
 21
144.3412598695108
 31
0.0
 12
1009.710288124228
 22
144.4495932028441
 32
0.0
 13
1009.710288124228
 23
144.4495932028441
 33
0.0
  0
SOLID
  5
6EDD
330
6DF7
100
AcDbEntity
  8
标注
100
AcDbTrace
 10
1023.06028812417
 20
144.5579265361775
 30
0.0
 11
1023.06028812417
 21
144.3412598695108
 31
0.0
 12
1023.71028812417
 22
144.4495932028441
 32
0.0
 13
1023.71028812417
 23
144.4495932028441
 33
0.0
  0
MTEXT
  5
6EDE
330
6DF7
100
AcDbEntity
  8
标注
100
AcDbMText
 10
1016.710288124199
 20
144.4495932028441
 30
0.0
 40
0.65
 41
0.0
 71
     5
 72
     1
  1
\A1;14"
 73
     1
 44
1.0
1001
ACAD
1000
MTEXTBEGIN
1070
    73
1070
     1
1070
    44
1040
1.0
1070
    74
1070
     0
1000
MTEXTEND
  0
POINT
  5
6EDF
330
6DF7
100
AcDbEntity
  8
DEFPOINTS
 62
     0
100
AcDbPoint
 10
1009.710288124228
 20
147.3966919853646
 30
0.0
  0
POINT
  5
6EE0
330
6DF7
100
AcDbEntity
  8
DEFPOINTS
 62
     0
100
AcDbPoint
 10
1023.71028812417
 20
147.3966919853646
 30
0.0
  0
POINT
  5
6EE1
330
6DF7
100
AcDbEntity
  8
DEFPOINTS
 62
     0
100
AcDbPoint
 10
1023.71028812417
 20
144.4495932028441
 30
0.0
  0
ENDBLK
  5
6DF9
330
6DF7
100
AcDbEntity
  8
0
100
AcDbBlockEnd
  0
BLOCK
  5
6E06
330
6E05
100
AcDbEntity
  8
0
100
AcDbBlockBegin
  2
*D7
 70
     1
 10
0.0
 20
0.0
 30
0.0
  3
*D7
  1

  0
LINE
  5
6EE2
330
6E05
100
AcDbEntity
  8
标注
370
    -2
100
AcDbLine
 10
1024.71028812416
 20
146.5166919853546
 30
0.0
 11
1024.71028812416
 21
144.1295932028442
 31
0.0
  0
LINE
  5
6EE3
330
6E05
100
AcDbEntity
  8
标注
370
    -2
100
AcDbLine
 10
1038.210288124092
 20
146.5166919853837
 30
0.0
 11
1038.210288124092
 21
144.1295932028442
 31
0.0
  0
LINE
  5
6EE4
330
6E05
100
AcDbEntity
  8
标注
370
    -2
100
AcDbLine
 10
1025.36028812416
 20
144.4495932028441
 30
0.0
 11
1029.807525504754
 21
144.4495932028441
 31
0.0
  0
LINE
  5
6EE5
330
6E05
100
AcDbEntity
  8
标注
370
    -2
100
AcDbLine
 10
1037.560288124092
 20
144.4495932028441
 30
0.0
 11
1033.113050743498
 21
144.4495932028441
 31
0.0
  0
SOLID
  5
6EE6
330
6E05
100
AcDbEntity
  8
标注
100
AcDbTrace
 10
1025.36028812416
 20
144.5579265361775
 30
0.0
 11
1025.36028812416
 21
144.3412598695108
 31
0.0
 12
1024.71028812416
 22
144.4495932028441
 32
0.0
 13
1024.71028812416
 23
144.4495932028441
 33
0.0
  0
SOLID
  5
6EE7
330
6E05
100
AcDbEntity
  8
标注
100
AcDbTrace
 10
1037.560288124092
 20
144.5579265361775
 30
0.0
 11
1037.560288124092
 21
144.3412598695108
 31
0.0
 12
1038.210288124092
 22
144.4495932028441
 32
0.0
 13
1038.210288124092
 23
144.4495932028441
 33
0.0
  0
MTEXT
  5
6EE8
330
6E05
100
AcDbEntity
  8
标注
100
AcDbMText
 10
1031.460288124126
 20
144.4495932028441
 30
0.0
 40
0.65
 41
0.0
 71
     5
 72
     1
  1
\A1;13 1/2"
 73
     1
 44
1.0
1001
ACAD
1000
MTEXTBEGIN
1070
    73
1070
     1
1070
    44
1040
1.0
1070
    74
1070
     0
1000
MTEXTEND
  0
POINT
  5
6EE9
330
6E05
100
AcDbEntity
  8
DEFPOINTS
 62
     0
100
AcDbPoint
 10
1024.71028812416
 20
147.3966919853546
 30
0.0
  0
POINT
  5
6EEA
330
6E05
100
AcDbEntity
  8
DEFPOINTS
 62
     0
100
AcDbPoint
 10
1038.210288124092
 20
147.3966919853836
 30
0.0
  0
POINT
  5
6EEB
330
6E05
100
AcDbEntity
  8
DEFPOINTS
 62
     0
100
AcDbPoint
 10
1038.210288124092
 20
144.4495932028441
 30
0.0
  0
ENDBLK
  5
6E07
330
6E05
100
AcDbEntity
  8
0
100
AcDbBlockEnd
  0
BLOCK
  5
6E14
330
6E13
100
AcDbEntity
  8
0
100
AcDbBlockBegin
  2
*D8
 70
     1
 10
0.0
 20
0.0
 30
0.0
  3
*D8
  1

  0
LINE
  5
6EEC
330
6E13
100
AcDbEntity
  8
标注
370
    -2
100
AcDbLine
 10
1008.710288124228
 20
146.0886773052326
 30
0.0
 11
1008.710288124228
 21
142.3791019304778
 31
0.0
  0
LINE
  5
6EED
330
6E13
100
AcDbEntity
  8
标注
370
    -2
100
AcDbLine
 10
1039.210288124111
 20
146.0886773052326
 30
0.0
 11
1039.210288124111
 21
142.3791019304778
 31
0.0
  0
LINE
  5
6EEE
330
6E13
100
AcDbEntity
  8
标注
370
    -2
100
AcDbLine
 10
1009.360288124228
 20
142.6991019304778
 30
0.0
 11
1022.277153744906
 21
142.6991019304778
 31
0.0
  0
LINE
  5
6EEF
330
6E13
100
AcDbEntity
  8
标注
370
    -2
100
AcDbLine
 10
1038.560288124111
 20
142.6991019304778
 30
0.0
 11
1025.643422503433
 21
142.6991019304778
 31
0.0
  0
SOLID
  5
6EF0
330
6E13
100
AcDbEntity
  8
标注
100
AcDbTrace
 10
1009.360288124228
 20
142.8074352638111
 30
0.0
 11
1009.360288124228
 21
142.5907685971445
 31
0.0
 12
1008.710288124228
 22
142.6991019304778
 32
0.0
 13
1008.710288124228
 23
142.6991019304778
 33
0.0
  0
SOLID
  5
6EF1
330
6E13
100
AcDbEntity
  8
标注
100
AcDbTrace
 10
1038.560288124111
 20
142.8074352638111
 30
0.0
 11
1038.560288124111
 21
142.5907685971445
 31
0.0
 12
1039.210288124111
 22
142.6991019304778
 32
0.0
 13
1039.210288124111
 23
142.6991019304778
 33
0.0
  0
MTEXT
  5
6EF2
330
6E13
100
AcDbEntity
  8
标注
100
AcDbMText
 10
1023.96028812417
 20
142.6991019304778
 30
0.0
 40
0.65
 41
0.0
 71
     5
 72
     1
  1
\A1;30 1/2"
 73
     1
 44
1.0
1001
ACAD
1000
MTEXTBEGIN
1070
    73
1070
     1
1070
    44
1040
1.0
1070
    74
1070
     0
1000
MTEXTEND
  0
POINT
  5
6EF3
330
6E13
100
AcDbEntity
  8
DEFPOINTS
 62
     0
100
AcDbPoint
 10
1008.710288124228
 20
146.9686773052325
 30
0.0
  0
POINT
  5
6EF4
330
6E13
100
AcDbEntity
  8
DEFPOINTS
 62
     0
100
AcDbPoint
 10
1039.210288124111
 20
146.9686773052325
 30
0.0
  0
POINT
  5
6EF5
330
6E13
100
AcDbEntity
  8
DEFPOINTS
 62
     0
100
AcDbPoint
 10
1039.210288124111
 20
142.6991019304778
 30
0.0
  0
ENDBLK
  5
6E15
330
6E13
100
AcDbEntity
  8
0
100
AcDbBlockEnd
  0
BLOCK
  5
6E22
330
6E21
100
AcDbEntity
  8
0
100
AcDbBlockBegin
  2
*D9
 70
     1
 10
0.0
 20
0.0
 30
0.0
  3
*D9
  1

  0
LINE
  5
6EF6
330
6E21
100
AcDbEntity
  8
标注
370
    -2
100
AcDbLine
 10
1038.696587336692
 20
147.0029911979454
 30
0.0
 11
1041.364624893784
 21
147.0029911979454
 31
0.0
  0
LINE
  5
6EF7
330
6E21
100
AcDbEntity
  8
标注
370
    -2
100
AcDbLine
 10
1038.696587336692
 20
163.002991197897
 30
0.0
 11
1041.364624893784
 21
163.002991197897
 31
0.0
  0
LINE
  5
6EF8
330
6E21
100
AcDbEntity
  8
标注
370
    -2
100
AcDbLine
 10
1041.044624893784
 20
147.6529911979454
 30
0.0
 11
1041.044624893784
 21
154.1075273507179
 31
0.0
  0
LINE
  5
6EF9
330
6E21
100
AcDbEntity
  8
标注
370
    -2
100
AcDbLine
 10
1041.044624893784
 20
162.3529911978971
 30
0.0
 11
1041.044624893784
 21
155.8984550451244
 31
0.0
  0
SOLID
  5
6EFA
330
6E21
100
AcDbEntity
  8
标注
100
AcDbTrace
 10
1040.93629156045
 20
147.6529911979454
 30
0.0
 11
1041.152958227117
 21
147.6529911979454
 31
0.0
 12
1041.044624893784
 22
147.0029911979454
 32
0.0
 13
1041.044624893784
 23
147.0029911979454
 33
0.0
  0
SOLID
  5
6EFB
330
6E21
100
AcDbEntity
  8
标注
100
AcDbTrace
 10
1040.93629156045
 20
162.3529911978971
 30
0.0
 11
1041.152958227117
 21
162.3529911978971
 31
0.0
 12
1041.044624893784
 22
163.002991197897
 32
0.0
 13
1041.044624893784
 23
163.002991197897
 33
0.0
  0
MTEXT
  5
6EFC
330
6E21
100
AcDbEntity
  8
标注
100
AcDbMText
 10
1041.044624893784
 20
155.0029911979214
 30
0.0
 40
0.65
 41
0.0
 71
     5
 72
     1
  1
\A1;16"
 11
0.0000000000000001
 21
1.0
 31
0.0
 73
     1
 44
1.0
1001
ACAD
1000
MTEXTBEGIN
1070
    73
1070
     1
1070
    44
1040
1.0
1070
    74
1070
     0
1000
MTEXTEND
  0
POINT
  5
6EFD
330
6E21
100
AcDbEntity
  8
DEFPOINTS
 62
     0
100
AcDbPoint
 10
1037.816587336692
 20
147.0029911979454
 30
0.0
  0
POINT
  5
6EFE
330
6E21
100
AcDbEntity
  8
DEFPOINTS
 62
     0
100
AcDbPoint
 10
1037.816587336692
 20
163.002991197897
 30
0.0
  0
POINT
  5
6EFF
330
6E21
100
AcDbEntity
  8
DEFPOINTS
 62
     0
100
AcDbPoint
 10
1041.044624893784
 20
163.002991197897
 30
0.0
  0
ENDBLK
  5
6E23
330
6E21
100
AcDbEntity
  8
0
100
AcDbBlockEnd
  0
BLOCK
  5
6E30
330
6E2F
100
AcDbEntity
  8
0
100
AcDbBlockBegin
  2
*D10
 70
     1
 10
0.0
 20
0.0
 30
0.0
  3
*D10
  1

  0
LINE
  5
6F00
330
6E2F
100
AcDbEntity
  8
标注
370
    -2
100
AcDbLine
 10
1039.090288124092
 20
146.0029911979454
 30
0.0
 11
1043.101448051936
 21
146.0029911979454
 31
0.0
  0
LINE
  5
6F01
330
6E2F
100
AcDbEntity
  8
标注
370
    -2
100
AcDbLine
 10
1039.090288124092
 20
164.0029911978872
 30
0.0
 11
1043.101448051936
 21
164.0029911978872
 31
0.0
  0
LINE
  5
6F02
330
6E2F
100
AcDbEntity
  8
标注
370
    -2
100
AcDbLine
 10
1042.781448051936
 20
146.6529911979454
 30
0.0
 11
1042.781448051936
 21
154.107527350713
 31
0.0
  0
LINE
  5
6F03
330
6E2F
100
AcDbEntity
  8
标注
370
    -2
100
AcDbLine
 10
1042.781448051936
 20
163.3529911978872
 30
0.0
 11
1042.781448051936
 21
155.8984550451195
 31
0.0
  0
SOLID
  5
6F04
330
6E2F
100
AcDbEntity
  8
标注
100
AcDbTrace
 10
1042.673114718603
 20
146.6529911979454
 30
0.0
 11
1042.88978138527
 21
146.6529911979454
 31
0.0
 12
1042.781448051936
 22
146.0029911979454
 32
0.0
 13
1042.781448051936
 23
146.0029911979454
 33
0.0
  0
SOLID
  5
6F05
330
6E2F
100
AcDbEntity
  8
标注
100
AcDbTrace
 10
1042.673114718603
 20
163.3529911978872
 30
0.0
 11
1042.88978138527
 21
163.3529911978872
 31
0.0
 12
1042.781448051936
 22
164.0029911978872
 32
0.0
 13
1042.781448051936
 23
164.0029911978872
 33
0.0
  0
MTEXT
  5
6F06
330
6E2F
100
AcDbEntity
  8
标注
100
AcDbMText
 10
1042.781448051936
 20
155.0029911979164
 30
0.0
 40
0.65
 41
0.0
 71
     5
 72
     1
  1
\A1;18"
 11
0.0000000000000001
 21
1.0
 31
0.0
 73
     1
 44
1.0
1001
ACAD
1000
MTEXTBEGIN
1070
    73
1070
     1
1070
    44
1040
1.0
1070
    74
1070
     0
1000
MTEXTEND
  0
POINT
  5
6F07
330
6E2F
100
AcDbEntity
  8
DEFPOINTS
 62
     0
100
AcDbPoint
 10
1038.210288124092
 20
146.0029911979454
 30
0.0
  0
POINT
  5
6F08
330
6E2F
100
AcDbEntity
  8
DEFPOINTS
 62
     0
100
AcDbPoint
 10
1038.210288124092
 20
164.0029911978872
 30
0.0
  0
POINT
  5
6F09
330
6E2F
100
AcDbEntity
  8
DEFPOINTS
 62
     0
100
AcDbPoint
 10
1042.781448051936
 20
164.0029911978872
 30
0.0
  0
ENDBLK
  5
6E31
330
6E2F
100
AcDbEntity
  8
0
100
AcDbBlockEnd
  0
BLOCK
  5
6E3E
330
6E3D
100
AcDbEntity
  8
0
100
AcDbBlockBegin
  2
*D11
 70
     1
 10
0.0
 20
0.0
 30
0.0
  3
*D11
  1

  0
LINE
  5
6F0A
330
6E3D
100
AcDbEntity
  8
标注
370
    -2
100
AcDbLine
 10
1009.223988911618
 20
147.0029911979454
 30
0.0
 11
1006.745418273095
 21
147.0029911979454
 31
0.0
  0
LINE
  5
6F0B
330
6E3D
100
AcDbEntity
  8
标注
370
    -2
100
AcDbLine
 10
1009.223988911618
 20
165.0029911978872
 30
0.0
 11
1006.745418273095
 21
165.0029911978872
 31
0.0
  0
LINE
  5
6F0C
330
6E3D
100
AcDbEntity
  8
标注
370
    -2
100
AcDbLine
 10
1007.065418273095
 20
147.6529911979454
 30
0.0
 11
1007.065418273095
 21
155.107527350713
 31
0.0
  0
LINE
  5
6F0D
330
6E3D
100
AcDbEntity
  8
标注
370
    -2
100
AcDbLine
 10
1007.065418273095
 20
164.3529911978871
 30
0.0
 11
1007.065418273095
 21
156.8984550451195
 31
0.0
  0
SOLID
  5
6F0E
330
6E3D
100
AcDbEntity
  8
标注
100
AcDbTrace
 10
1006.957084939761
 20
147.6529911979454
 30
0.0
 11
1007.173751606428
 21
147.6529911979454
 31
0.0
 12
1007.065418273095
 22
147.0029911979454
 32
0.0
 13
1007.065418273095
 23
147.0029911979454
 33
0.0
  0
SOLID
  5
6F0F
330
6E3D
100
AcDbEntity
  8
标注
100
AcDbTrace
 10
1006.957084939761
 20
164.3529911978871
 30
0.0
 11
1007.173751606428
 21
164.3529911978871
 31
0.0
 12
1007.065418273095
 22
165.0029911978872
 32
0.0
 13
1007.065418273095
 23
165.0029911978872
 33
0.0
  0
MTEXT
  5
6F10
330
6E3D
100
AcDbEntity
  8
标注
100
AcDbMText
 10
1007.065418273095
 20
156.0029911979164
 30
0.0
 40
0.65
 41
0.0
 71
     5
 72
     1
  1
\A1;18"
 11
0.0000000000000001
 21
1.0
 31
0.0
 73
     1
 44
1.0
1001
ACAD
1000
MTEXTBEGIN
1070
    73
1070
     1
1070
    44
1040
1.0
1070
    74
1070
     0
1000
MTEXTEND
  0
POINT
  5
6F11
330
6E3D
100
AcDbEntity
  8
DEFPOINTS
 62
     0
100
AcDbPoint
 10
1010.103988911618
 20
147.0029911979454
 30
0.0
  0
POINT
  5
6F12
330
6E3D
100
AcDbEntity
  8
DEFPOINTS
 62
     0
100
AcDbPoint
 10
1010.103988911618
 20
165.0029911978872
 30
0.0
  0
POINT
  5
6F13
330
6E3D
100
AcDbEntity
  8
DEFPOINTS
 62
     0
100
AcDbPoint
 10
1007.065418273095
 20
165.0029911978872
 30
0.0
  0
ENDBLK
  5
6E3F
330
6E3D
100
AcDbEntity
  8
0
100
AcDbBlockEnd
  0
BLOCK
  5
6E4C
330
6E4B
100
AcDbEntity
  8
0
100
AcDbBlockBegin
  2
*D12
 70
     1
 10
0.0
 20
0.0
 30
0.0
  3
*D12
  1

  0
LINE
  5
6F14
330
6E4B
100
AcDbEntity
  8
标注
370
    -2
100
AcDbLine
 10
1008.830288124228
 20
146.0029911979454
 30
0.0
 11
1005.055291516582
 21
146.0029911979454
 31
0.0
  0
LINE
  5
6F15
330
6E4B
100
AcDbEntity
  8
标注
370
    -2
100
AcDbLine
 10
1008.830288124228
 20
166.002991197858
 30
0.0
 11
1005.055291516582
 21
166.002991197858
 31
0.0
  0
LINE
  5
6F16
330
6E4B
100
AcDbEntity
  8
标注
370
    -2
100
AcDbLine
 10
1005.375291516581
 20
146.6529911979454
 30
0.0
 11
1005.375291516581
 21
155.0713916071785
 31
0.0
  0
LINE
  5
6F17
330
6E4B
100
AcDbEntity
  8
标注
370
    -2
100
AcDbLine
 10
1005.375291516581
 20
165.352991197858
 30
0.0
 11
1005.375291516581
 21
156.9345907886248
 31
0.0
  0
SOLID
  5
6F18
330
6E4B
100
AcDbEntity
  8
标注
100
AcDbTrace
 10
1005.266958183248
 20
146.6529911979454
 30
0.0
 11
1005.483624849915
 21
146.6529911979454
 31
0.0
 12
1005.375291516581
 22
146.0029911979454
 32
0.0
 13
1005.375291516581
 23
146.0029911979454
 33
0.0
  0
SOLID
  5
6F19
330
6E4B
100
AcDbEntity
  8
标注
100
AcDbTrace
 10
1005.266958183248
 20
165.352991197858
 30
0.0
 11
1005.483624849915
 21
165.352991197858
 31
0.0
 12
1005.375291516581
 22
166.002991197858
 32
0.0
 13
1005.375291516581
 23
166.002991197858
 33
0.0
  0
MTEXT
  5
6F1A
330
6E4B
100
AcDbEntity
  8
标注
100
AcDbMText
 10
1005.375291516581
 20
156.0029911979019
 30
0.0
 40
0.65
 41
0.0
 71
     5
 72
     1
  1
\A1;20"
 11
0.0000000000000001
 21
1.0
 31
0.0
 73
     1
 44
1.0
1001
ACAD
1000
MTEXTBEGIN
1070
    73
1070
     1
1070
    44
1040
1.0
1070
    74
1070
     0
1000
MTEXTEND
  0
POINT
  5
6F1B
330
6E4B
100
AcDbEntity
  8
DEFPOINTS
 62
     0
100
AcDbPoint
 10
1009.710288124228
 20
146.0029911979454
 30
0.0
  0
POINT
  5
6F1C
330
6E4B
100
AcDbEntity
  8
DEFPOINTS
 62
     0
100
AcDbPoint
 10
1009.710288124228
 20
166.002991197858
 30
0.0
  0
POINT
  5
6F1D
330
6E4B
100
AcDbEntity
  8
DEFPOINTS
 62
     0
100
AcDbPoint
 10
1005.375291516581
 20
166.002991197858
 30
0.0
  0
ENDBLK
  5
6E4D
330
6E4B
100
AcDbEntity
  8
0
100
AcDbBlockEnd
  0
BLOCK
  5
6E5A
330
6E59
100
AcDbEntity
  8
0
100
AcDbBlockBegin
  2
*D13
 70
     1
 10
0.0
 20
0.0
 30
0.0
  3
*D13
  1

  0
LINE
  5
6F1E
330
6E59
100
AcDbEntity
  8
标注
370
    -2
100
AcDbLine
 10
1040.090288124112
 20
185.7543758390301
 30
0.0
 11
1040.994697748532
 21
185.7543758390301
 31
0.0
  0
LINE
  5
6F1F
330
6E59
100
AcDbEntity
  8
标注
370
    -2
100
AcDbLine
 10
1038.725723289982
 20
177.8161041855118
 30
0.0
 11
1040.994697748532
 21
177.8161041855118
 31
0.0
  0
LINE
  5
6F20
330
6E59
100
AcDbEntity
  8
标注
370
    -2
100
AcDbLine
 10
1040.674697748531
 20
185.10437583903
 30
0.0
 11
1040.674697748531
 21
182.4592338731168
 31
0.0
  0
LINE
  5
6F21
330
6E59
100
AcDbEntity
  8
标注
370
    -2
100
AcDbLine
 10
1040.674697748531
 20
178.4661041855118
 30
0.0
 11
1040.674697748531
 21
181.1112461514251
 31
0.0
  0
SOLID
  5
6F22
330
6E59
100
AcDbEntity
  8
标注
100
AcDbTrace
 10
1040.566364415198
 20
185.10437583903
 30
0.0
 11
1040.783031081865
 21
185.10437583903
 31
0.0
 12
1040.674697748531
 22
185.7543758390301
 32
0.0
 13
1040.674697748531
 23
185.7543758390301
 33
0.0
  0
SOLID
  5
6F23
330
6E59
100
AcDbEntity
  8
标注
100
AcDbTrace
 10
1040.566364415198
 20
178.4661041855118
 30
0.0
 11
1040.783031081865
 21
178.4661041855118
 31
0.0
 12
1040.674697748531
 22
177.8161041855118
 32
0.0
 13
1040.674697748531
 23
177.8161041855118
 33
0.0
  0
MTEXT
  5
6F24
330
6E59
100
AcDbEntity
  8
标注
100
AcDbMText
 10
1040.674697748531
 20
181.7852400122711
 30
0.0
 40
0.65
 41
0.0
 71
     5
 72
     1
  1
\A1;8"
 11
0.0000000000000001
 21
1.0
 31
0.0
 73
     1
 44
1.0
1001
ACAD
1000
MTEXTBEGIN
1070
    73
1070
     1
1070
    44
1040
1.0
1070
    74
1070
     0
1000
MTEXTEND
  0
POINT
  5
6F25
330
6E59
100
AcDbEntity
  8
DEFPOINTS
 62
     0
100
AcDbPoint
 10
1039.210288124111
 20
185.7543758390301
 30
0.0
  0
POINT
  5
6F26
330
6E59
100
AcDbEntity
  8
DEFPOINTS
 62
     0
100
AcDbPoint
 10
1037.845723289982
 20
177.8161041855118
 30
0.0
  0
POINT
  5
6F27
330
6E59
100
AcDbEntity
  8
DEFPOINTS
 62
     0
100
AcDbPoint
 10
1040.674697748531
 20
177.8161041855118
 30
0.0
  0
ENDBLK
  5
6E5B
330
6E59
100
AcDbEntity
  8
0
100
AcDbBlockEnd
  0
BLOCK
  5
6E7C
330
6E7B
100
AcDbEntity
  8
0
100
AcDbBlockBegin
  2
*D14
 70
     1
 10
0.0
 20
0.0
 30
0.0
  3
*D14
  1

  0
LINE
  5
6F28
330
6E7B
100
AcDbEntity
  8
标注
370
    -2
100
AcDbLine
 10
1007.830288124548
 20
185.7543758390301
 30
0.0
 11
1006.362053868092
 21
185.7543758390301
 31
0.0
  0
LINE
  5
6F29
330
6E7B
100
AcDbEntity
  8
标注
370
    -2
100
AcDbLine
 10
1007.830288124548
 20
176.7543758390301
 30
0.0
 11
1006.362053868092
 21
176.7543758390301
 31
0.0
  0
LINE
  5
6F2A
330
6E7B
100
AcDbEntity
  8
标注
370
    -2
100
AcDbLine
 10
1006.682053868092
 20
185.10437583903
 30
0.0
 11
1006.682053868092
 21
181.9279263165199
 31
0.0
  0
LINE
  5
6F2B
330
6E7B
100
AcDbEntity
  8
标注
370
    -2
100
AcDbLine
 10
1006.682053868092
 20
177.4043758390301
 30
0.0
 11
1006.682053868092
 21
180.5808253615404
 31
0.0
  0
SOLID
  5
6F2C
330
6E7B
100
AcDbEntity
  8
标注
100
AcDbTrace
 10
1006.573720534758
 20
185.10437583903
 30
0.0
 11
1006.790387201425
 21
185.10437583903
 31
0.0
 12
1006.682053868092
 22
185.7543758390301
 32
0.0
 13
1006.682053868092
 23
185.7543758390301
 33
0.0
  0
SOLID
  5
6F2D
330
6E7B
100
AcDbEntity
  8
标注
100
AcDbTrace
 10
1006.573720534758
 20
177.4043758390301
 30
0.0
 11
1006.790387201425
 21
177.4043758390301
 31
0.0
 12
1006.682053868092
 22
176.7543758390301
 32
0.0
 13
1006.682053868092
 23
176.7543758390301
 33
0.0
  0
MTEXT
  5
6F2E
330
6E7B
100
AcDbEntity
  8
标注
100
AcDbMText
 10
1006.682053868092
 20
181.2543758390303
 30
0.0
 40
0.65
 41
0.0
 71
     5
 72
     1
  1
\A1;9"
 11
0.0000000000000001
 21
1.0
 31
0.0
 73
     1
 44
1.0
1001
ACAD
1000
MTEXTBEGIN
1070
    73
1070
     1
1070
    44
1040
1.0
1070
    74
1070
     0
1000
MTEXTEND
  0
POINT
  5
6F2F
330
6E7B
100
AcDbEntity
  8
DEFPOINTS
 62
     0
100
AcDbPoint
 10
1008.710288124548
 20
185.7543758390301
 30
0.0
  0
POINT
  5
6F30
330
6E7B
100
AcDbEntity
  8
DEFPOINTS
 62
     0
100
AcDbPoint
 10
1008.710288124548
 20
176.7543758390301
 30
0.0
  0
POINT
  5
6F31
330
6E7B
100
AcDbEntity
  8
DEFPOINTS
 62
     0
100
AcDbPoint
 10
1006.682053868092
 20
176.7543758390301
 30
0.0
  0
ENDBLK
  5
6E7D
330
6E7B
100
AcDbEntity
  8
0
100
AcDbBlockEnd
  0
BLOCK
  5
6E8A
330
6E89
100
AcDbEntity
  8
0
100
AcDbBlockBegin
  2
*D15
 70
     1
 10
0.0
 20
0.0
 30
0.0
  3
*D15
  1

  0
LINE
  5
6F32
330
6E89
100
AcDbEntity
  8
标注
370
    -2
100
AcDbLine
 10
1009.964051694382
 20
176.4762545283475
 30
0.0
 11
1009.503870816428
 21
176.0171972774892
 31
0.0
  0
MTEXT
  5
6F33
330
6E89
100
AcDbEntity
  8
标注
100
AcDbMText
 10
1011.272397653072
 20
178.2512385999863
 30
0.0
 40
0.65
 41
0.0
 71
     5
 72
     1
  1
\A1;R3/8"
 11
0.7079705814675492
 21
0.7062419243973701
 31
0.0
 73
     1
 44
1.0
1001
ACAD
1000
MTEXTBEGIN
1070
    73
1070
     1
1070
    44
1040
1.0
1070
    74
1070
     0
1000
MTEXTEND
  0
LINE
  5
6F34
330
6E89
100
AcDbEntity
  8
标注
370
    -2
100
AcDbLine
 10
1010.702961147716
 20
177.2133597809361
 30
0.0
 11
1010.424232572336
 21
176.9353117792057
 31
0.0
  0
SOLID
  5
6F35
330
6E89
100
AcDbEntity
  8
标注
100
AcDbTrace
 10
1009.887542152572
 20
176.5529513413398
 30
0.0
 11
1010.040561236191
 21
176.3995577153552
 31
0.0
 12
1010.424232572336
 22
176.9353117792057
 32
0.0
 13
1010.424232572336
 23
176.9353117792057
 33
0.0
  0
POINT
  5
6F36
330
6E89
100
AcDbEntity
  8
DEFPOINTS
 62
     0
100
AcDbPoint
 10
1010.424232572336
 20
176.9353117792057
 30
0.0
  0
POINT
  5
6F37
330
6E89
100
AcDbEntity
  8
DEFPOINTS
 62
     0
100
AcDbPoint
 10
1010.702961147716
 20
177.2133597809361
 30
0.0
  0
ENDBLK
  5
6E8B
330
6E89
100
AcDbEntity
  8
0
100
AcDbBlockEnd
  0
BLOCK
  5
6E94
330
6E93
100
AcDbEntity
  8
0
100
AcDbBlockBegin
  2
*D16
 70
     1
 10
0.0
 20
0.0
 30
0.0
  3
*D16
  1

  0
LINE
  5
6F38
330
6E93
100
AcDbEntity
  8
标注
370
    -2
100
AcDbLine
 10
1024.947305626549
 20
177.4264608794609
 30
0.0
 11
1024.520300447961
 21
176.9363929479868
 31
0.0
  0
MTEXT
  5
6F39
330
6E93
100
AcDbEntity
  8
标注
100
AcDbMText
 10
1026.161982373129
 20
179.2928120157265
 30
0.0
 40
0.65
 41
0.0
 71
     5
 72
     1
  1
\A1;R3/8"
 11
0.6569310439812118
 21
0.7539506638061642
 31
0.0
 73
     1
 44
1.0
1001
ACAD
1000
MTEXTBEGIN
1070
    73
1070
     1
1070
    44
1040
1.0
1070
    74
1070
     0
1000
MTEXTEND
  0
LINE
  5
6F3A
330
6E93
100
AcDbEntity
  8
标注
370
    -2
100
AcDbLine
 10
1025.632945074419
 20
178.213359780936
 30
0.0
 11
1025.374310805136
 21
177.9165288109349
 31
0.0
  0
SOLID
  5
6F3B
330
6E93
100
AcDbEntity
  8
标注
100
AcDbTrace
 10
1024.86562763797
 20
177.4976284092256
 30
0.0
 11
1025.028983615128
 21
177.3552933496963
 31
0.0
 12
1025.374310805136
 22
177.9165288109349
 32
0.0
 13
1025.374310805136
 23
177.9165288109349
 33
0.0
  0
POINT
  5
6F3C
330
6E93
100
AcDbEntity
  8
DEFPOINTS
 62
     0
100
AcDbPoint
 10
1025.374310805136
 20
177.9165288109349
 30
0.0
  0
POINT
  5
6F3D
330
6E93
100
AcDbEntity
  8
DEFPOINTS
 62
     0
100
AcDbPoint
 10
1025.632945074419
 20
178.213359780936
 30
0.0
  0
ENDBLK
  5
6E95
330
6E93
100
AcDbEntity
  8
0
100
AcDbBlockEnd
  0
BLOCK
  5
707F
330
707E
100
AcDbEntity
  8
0
100
AcDbBlockBegin
  2
*D17
 70
     1
 10
0.0
 20
0.0
 30
0.0
  3
*D17
  1

  0
LINE
  5
7081
330
707E
100
AcDbEntity
  8
标注
370
    -2
100
AcDbLine
 10
1079.180281719956
 20
181.6483556837381
 30
0.0
 11
1080.862593747906
 21
181.6483556837381
 31
0.0
  0
LINE
  5
7082
330
707E
100
AcDbEntity
  8
标注
370
    -2
100
AcDbLine
 10
1079.180281719956
 20
172.6483556837381
 30
0.0
 11
1080.862593747906
 21
172.6483556837381
 31
0.0
  0
LINE
  5
7083
330
707E
100
AcDbEntity
  8
标注
370
    -2
100
AcDbLine
 10
1080.542593747907
 20
180.9983556837381
 30
0.0
 11
1080.542593747907
 21
177.8219061612279
 31
0.0
  0
LINE
  5
7084
330
707E
100
AcDbEntity
  8
标注
370
    -2
100
AcDbLine
 10
1080.542593747907
 20
173.2983556837381
 30
0.0
 11
1080.542593747907
 21
176.4748052062483
 31
0.0
  0
SOLID
  5
7085
330
707E
100
AcDbEntity
  8
标注
100
AcDbTrace
 10
1080.434260414573
 20
180.9983556837381
 30
0.0
 11
1080.65092708124
 21
180.9983556837381
 31
0.0
 12
1080.542593747907
 22
181.6483556837381
 32
0.0
 13
1080.542593747907
 23
181.6483556837381
 33
0.0
  0
SOLID
  5
7086
330
707E
100
AcDbEntity
  8
标注
100
AcDbTrace
 10
1080.434260414573
 20
173.2983556837381
 30
0.0
 11
1080.65092708124
 21
173.2983556837381
 31
0.0
 12
1080.542593747907
 22
172.6483556837381
 32
0.0
 13
1080.542593747907
 23
172.6483556837381
 33
0.0
  0
MTEXT
  5
7087
330
707E
100
AcDbEntity
  8
标注
100
AcDbMText
 10
1080.542593747907
 20
177.1483556837383
 30
0.0
 40
0.65
 41
0.0
 71
     5
 72
     1
  1
\A1;9"
 11
0.0000000000000001
 21
1.0
 31
0.0
 73
     1
 44
1.0
1001
ACAD
1000
MTEXTBEGIN
1070
    73
1070
     1
1070
    44
1040
1.0
1070
    74
1070
     0
1000
MTEXTEND
  0
POINT
  5
7088
330
707E
100
AcDbEntity
  8
DEFPOINTS
 62
     0
100
AcDbPoint
 10
1078.300281719956
 20
181.6483556837381
 30
0.0
  0
POINT
  5
7089
330
707E
100
AcDbEntity
  8
DEFPOINTS
 62
     0
100
AcDbPoint
 10
1078.300281719956
 20
172.6483556837381
 30
0.0
  0
POINT
  5
708A
330
707E
100
AcDbEntity
  8
DEFPOINTS
 62
     0
100
AcDbPoint
 10
1080.542593747907
 20
172.6483556837381
 30
0.0
  0
ENDBLK
  5
7080
330
707E
100
AcDbEntity
  8
0
100
AcDbBlockEnd
  0
BLOCK
  5
708D
330
708C
100
AcDbEntity
  8
0
100
AcDbBlockBegin
  2
*D18
 70
     1
 10
0.0
 20
0.0
 30
0.0
  3
*D18
  1

  0
ARC
  5
70AC
330
708C
100
AcDbEntity
  8
标注
  6
Continuous
 62
     3
370
    13
100
AcDbCircle
 10
1077.300281719974
 20
181.6483556837381
 30
0.0
 40
2.738119904026787
100
AcDbArc
 50
193.6335384897481
 51
207.577830060386
  0
ARC
  5
70AD
330
708C
100
AcDbEntity
  8
标注
  6
Continuous
 62
     3
370
    13
100
AcDbCircle
 10
1077.300281719974
 20
181.6483556837381
 30
0.0
 40
2.738119904026787
100
AcDbArc
 50
238.4170805609163
 51
252.3613721315534
  0
SOLID
  5
70AE
330
708C
100
AcDbEntity
  8
标注
 62
     3
100
AcDbTrace
 10
1074.531745790292
 20
180.9900920765908
 30
0.0
 11
1074.746880799402
 21
181.0158092362241
 31
0.0
 12
1074.562161815947
 22
181.6483556837379
 32
0.0
 13
1074.562161815947
 23
181.6483556837379
 33
0.0
  0
SOLID
  5
70AF
330
708C
100
AcDbEntity
  8
标注
 62
     3
100
AcDbTrace
 10
1076.490937545174
 20
179.1453708104001
 30
0.0
 11
1076.450257068023
 21
178.9325574103914
 31
0.0
 12
1077.109037506624
 22
178.9169226789421
 32
0.0
 13
1077.109037506624
 23
178.9169226789421
 33
0.0
  0
MTEXT
  5
70B0
102
{ACAD_XDICTIONARY
360
79E6
102
}
330
708C
100
AcDbEntity
  8
标注
 62
     3
100
AcDbMText
 10
1075.297664657736
 20
179.7810513403429
 30
0.0
 40
0.65
 41
0.0
 71
     5
 72
     1
  1
\A1;86\U+00B0
 11
0.6819658776261142
 21
-0.7313839906325841
 31
0.0
 73
     1
 44
1.0
1001
ACAD
1000
MTEXTBEGIN
1070
    73
1070
     1
1070
    44
1040
1.0
1070
    74
1070
     0
1000
MTEXTEND
  0
POINT
  5
70B1
330
708C
100
AcDbEntity
  8
DEFPOINTS
 62
     0
100
AcDbPoint
 10
1074.897746883068
 20
180.3349147957348
 30
0.0
  0
POINT
  5
70B2
330
708C
100
AcDbEntity
  8
DEFPOINTS
 62
     0
100
AcDbPoint
 10
1062.208506911422
 20
181.6483556837382
 30
0.0
  0
POINT
  5
70B3
330
708C
100
AcDbEntity
  8
DEFPOINTS
 62
     0
100
AcDbPoint
 10
1077.293871700804
 20
181.5568050029876
 30
0.0
  0
POINT
  5
70B4
330
708C
100
AcDbEntity
  8
DEFPOINTS
 62
     0
100
AcDbPoint
 10
1076.700348007504
 20
173.0798415612559
 30
0.0
  0
POINT
  5
70B5
330
708C
100
AcDbEntity
  8
DEFPOINTS
 62
     0
100
AcDbPoint
 10
1077.392056528548
 20
181.6483556837381
 30
0.0
  0
ENDBLK
  5
708E
330
708C
100
AcDbEntity
  8
0
100
AcDbBlockEnd
  0
BLOCK
  5
70C4
330
70C3
100
AcDbEntity
  8
0
100
AcDbBlockBegin
  2
*D19
 70
     1
 10
0.0
 20
0.0
 30
0.0
  3
*D19
  1

  0
LINE
  5
70C6
330
70C3
100
AcDbEntity
  8
标注
370
    -2
100
AcDbLine
 10
1062.517119592657
 20
172.4092055752737
 30
0.0
 11
1062.033941986434
 21
171.9744189599724
 31
0.0
  0
MTEXT
  5
70C7
330
70C3
100
AcDbEntity
  8
标注
100
AcDbMText
 10
1061.990755455854
 20
172.6820784371186
 30
0.0
 40
0.65
 41
0.0
 71
     5
 72
     1
  1
\A1;R3/8"
 11
0.7433501634192003
 21
0.6689024850788405
 31
0.0
 73
     1
 44
1.0
1001
ACAD
1000
MTEXTBEGIN
1070
    73
1070
     1
1070
    44
1040
1.0
1070
    74
1070
     0
1000
MTEXTEND
  0
LINE
  5
70C8
330
70C3
100
AcDbEntity
  8
标注
370
    -2
100
AcDbLine
 10
1063.292954743531
 20
173.1073396256443
 30
0.0
 11
1063.000297198879
 21
172.843992190575
 31
0.0
  0
SOLID
  5
70C9
330
70C3
100
AcDbEntity
  8
标注
100
AcDbTrace
 10
1062.444655156773
 20
172.4897351763108
 30
0.0
 11
1062.58958402854
 21
172.3286759742366
 31
0.0
 12
1063.000297198879
 22
172.843992190575
 32
0.0
 13
1063.000297198879
 23
172.843992190575
 33
0.0
  0
POINT
  5
70CA
330
70C3
100
AcDbEntity
  8
DEFPOINTS
 62
     0
100
AcDbPoint
 10
1063.000297198879
 20
172.843992190575
 30
0.0
  0
POINT
  5
70CB
330
70C3
100
AcDbEntity
  8
DEFPOINTS
 62
     0
100
AcDbPoint
 10
1063.292954743531
 20
173.1073396256443
 30
0.0
  0
ENDBLK
  5
70C5
330
70C3
100
AcDbEntity
  8
0
100
AcDbBlockEnd
  0
BLOCK
  5
70CE
330
70CD
100
AcDbEntity
  8
0
100
AcDbBlockBegin
  2
*D20
 70
     1
 10
0.0
 20
0.0
 30
0.0
  3
*D20
  1

  0
LINE
  5
70D0
330
70CD
100
AcDbEntity
  8
标注
370
    -2
100
AcDbLine
 10
1062.300281720034
 20
144.8295933745531
 30
0.0
 11
1062.300281720034
 21
142.0845770921852
 31
0.0
  0
LINE
  5
70D1
330
70CD
100
AcDbEntity
  8
标注
370
    -2
100
AcDbLine
 10
1077.300281719956
 20
144.8295933745531
 30
0.0
 11
1077.300281719956
 21
142.0845770921852
 31
0.0
  0
LINE
  5
70D2
330
70CD
100
AcDbEntity
  8
标注
370
    -2
100
AcDbLine
 10
1062.950281720034
 20
142.4045770921852
 30
0.0
 11
1068.904817872792
 21
142.4045770921852
 31
0.0
  0
LINE
  5
70D3
330
70CD
100
AcDbEntity
  8
标注
370
    -2
100
AcDbLine
 10
1076.650281719956
 20
142.4045770921852
 30
0.0
 11
1070.695745567198
 21
142.4045770921852
 31
0.0
  0
SOLID
  5
70D4
330
70CD
100
AcDbEntity
  8
标注
100
AcDbTrace
 10
1062.950281720034
 20
142.5129104255185
 30
0.0
 11
1062.950281720034
 21
142.2962437588518
 31
0.0
 12
1062.300281720034
 22
142.4045770921852
 32
0.0
 13
1062.300281720034
 23
142.4045770921852
 33
0.0
  0
SOLID
  5
70D5
330
70CD
100
AcDbEntity
  8
标注
100
AcDbTrace
 10
1076.650281719956
 20
142.5129104255185
 30
0.0
 11
1076.650281719956
 21
142.2962437588518
 31
0.0
 12
1077.300281719956
 22
142.4045770921852
 32
0.0
 13
1077.300281719956
 23
142.4045770921852
 33
0.0
  0
MTEXT
  5
70D6
330
70CD
100
AcDbEntity
  8
标注
100
AcDbMText
 10
1069.800281719995
 20
142.4045770921852
 30
0.0
 40
0.65
 41
0.0
 71
     5
 72
     1
  1
\A1;15"
 73
     1
 44
1.0
1001
ACAD
1000
MTEXTBEGIN
1070
    73
1070
     1
1070
    44
1040
1.0
1070
    74
1070
     0
1000
MTEXTEND
  0
POINT
  5
70D7
330
70CD
100
AcDbEntity
  8
DEFPOINTS
 62
     0
100
AcDbPoint
 10
1062.300281720034
 20
145.7095933745531
 30
0.0
  0
POINT
  5
70D8
330
70CD
100
AcDbEntity
  8
DEFPOINTS
 62
     0
100
AcDbPoint
 10
1077.300281719956
 20
145.7095933745531
 30
0.0
  0
POINT
  5
70D9
330
70CD
100
AcDbEntity
  8
DEFPOINTS
 62
     0
100
AcDbPoint
 10
1077.300281719956
 20
142.4045770921852
 30
0.0
  0
ENDBLK
  5
70CF
330
70CD
100
AcDbEntity
  8
0
100
AcDbBlockEnd
  0
BLOCK
  5
70DC
330
70DB
100
AcDbEntity
  8
0
100
AcDbBlockBegin
  2
*D21
 70
     1
 10
0.0
 20
0.0
 30
0.0
  3
*D21
  1

  0
LINE
  5
70DE
330
70DB
100
AcDbEntity
  8
标注
370
    -2
100
AcDbLine
 10
1061.300281720015
 20
144.2834684581846
 30
0.0
 11
1061.300281720015
 21
140.4372530307021
 31
0.0
  0
LINE
  5
70DF
330
70DB
100
AcDbEntity
  8
标注
370
    -2
100
AcDbLine
 10
1078.300281719958
 20
144.2834684581846
 30
0.0
 11
1078.300281719958
 21
140.4372530307021
 31
0.0
  0
LINE
  5
70E0
330
70DB
100
AcDbEntity
  8
标注
370
    -2
100
AcDbLine
 10
1061.950281720015
 20
140.7572530307021
 30
0.0
 11
1068.904817872783
 21
140.7572530307021
 31
0.0
  0
LINE
  5
70E1
330
70DB
100
AcDbEntity
  8
标注
370
    -2
100
AcDbLine
 10
1077.650281719958
 20
140.7572530307021
 30
0.0
 11
1070.69574556719
 21
140.7572530307021
 31
0.0
  0
SOLID
  5
70E2
330
70DB
100
AcDbEntity
  8
标注
100
AcDbTrace
 10
1061.950281720015
 20
140.8655863640354
 30
0.0
 11
1061.950281720015
 21
140.6489196973688
 31
0.0
 12
1061.300281720015
 22
140.7572530307021
 32
0.0
 13
1061.300281720015
 23
140.7572530307021
 33
0.0
  0
SOLID
  5
70E3
330
70DB
100
AcDbEntity
  8
标注
100
AcDbTrace
 10
1077.650281719958
 20
140.8655863640354
 30
0.0
 11
1077.650281719958
 21
140.6489196973688
 31
0.0
 12
1078.300281719958
 22
140.7572530307021
 32
0.0
 13
1078.300281719958
 23
140.7572530307021
 33
0.0
  0
MTEXT
  5
70E4
330
70DB
100
AcDbEntity
  8
标注
100
AcDbMText
 10
1069.800281719986
 20
140.7572530307021
 30
0.0
 40
0.65
 41
0.0
 71
     5
 72
     1
  1
\A1;17"
 73
     1
 44
1.0
1001
ACAD
1000
MTEXTBEGIN
1070
    73
1070
     1
1070
    44
1040
1.0
1070
    74
1070
     0
1000
MTEXTEND
  0
POINT
  5
70E5
330
70DB
100
AcDbEntity
  8
DEFPOINTS
 62
     0
100
AcDbPoint
 10
1061.300281720015
 20
145.1634684581845
 30
0.0
  0
POINT
  5
70E6
330
70DB
100
AcDbEntity
  8
DEFPOINTS
 62
     0
100
AcDbPoint
 10
1078.300281719958
 20
145.1634684581845
 30
0.0
  0
POINT
  5
70E7
330
70DB
100
AcDbEntity
  8
DEFPOINTS
 62
     0
100
AcDbPoint
 10
1078.300281719958
 20
140.7572530307021
 30
0.0
  0
ENDBLK
  5
70DD
330
70DB
100
AcDbEntity
  8
0
100
AcDbBlockEnd
  0
BLOCK
  5
70EA
330
70E9
100
AcDbEntity
  8
0
100
AcDbBlockBegin
  2
*D22
 70
     1
 10
0.0
 20
0.0
 30
0.0
  3
*D22
  1

  0
LINE
  5
70EC
330
70E9
100
AcDbEntity
  8
标注
370
    -2
100
AcDbLine
 10
1077.786580932566
 20
145.3158925871437
 30
0.0
 11
1080.456498748095
 21
145.3158925871437
 31
0.0
  0
LINE
  5
70ED
330
70E9
100
AcDbEntity
  8
标注
370
    -2
100
AcDbLine
 10
1077.786580932566
 20
161.3158925870563
 30
0.0
 11
1080.456498748095
 21
161.3158925870563
 31
0.0
  0
LINE
  5
70EE
330
70E9
100
AcDbEntity
  8
标注
370
    -2
100
AcDbLine
 10
1080.136498748095
 20
145.9658925871437
 30
0.0
 11
1080.136498748095
 21
152.4204287398967
 31
0.0
  0
LINE
  5
70EF
330
70E9
100
AcDbEntity
  8
标注
370
    -2
100
AcDbLine
 10
1080.136498748095
 20
160.6658925870563
 30
0.0
 11
1080.136498748095
 21
154.2113564343033
 31
0.0
  0
SOLID
  5
70F0
330
70E9
100
AcDbEntity
  8
标注
100
AcDbTrace
 10
1080.028165414762
 20
145.9658925871437
 30
0.0
 11
1080.244832081428
 21
145.9658925871437
 31
0.0
 12
1080.136498748095
 22
145.3158925871437
 32
0.0
 13
1080.136498748095
 23
145.3158925871437
 33
0.0
  0
SOLID
  5
70F1
330
70E9
100
AcDbEntity
  8
标注
100
AcDbTrace
 10
1080.028165414762
 20
160.6658925870563
 30
0.0
 11
1080.244832081428
 21
160.6658925870563
 31
0.0
 12
1080.136498748095
 22
161.3158925870563
 32
0.0
 13
1080.136498748095
 23
161.3158925870563
 33
0.0
  0
MTEXT
  5
70F2
330
70E9
100
AcDbEntity
  8
标注
100
AcDbMText
 10
1080.136498748095
 20
153.3158925871
 30
0.0
 40
0.65
 41
0.0
 71
     5
 72
     1
  1
\A1;16"
 11
0.0000000000000001
 21
1.0
 31
0.0
 73
     1
 44
1.0
1001
ACAD
1000
MTEXTBEGIN
1070
    73
1070
     1
1070
    44
1040
1.0
1070
    74
1070
     0
1000
MTEXTEND
  0
POINT
  5
70F3
330
70E9
100
AcDbEntity
  8
DEFPOINTS
 62
     0
100
AcDbPoint
 10
1076.906580932566
 20
145.3158925871437
 30
0.0
  0
POINT
  5
70F4
330
70E9
100
AcDbEntity
  8
DEFPOINTS
 62
     0
100
AcDbPoint
 10
1076.906580932566
 20
161.3158925870563
 30
0.0
  0
POINT
  5
70F5
330
70E9
100
AcDbEntity
  8
DEFPOINTS
 62
     0
100
AcDbPoint
 10
1080.136498748095
 20
161.3158925870563
 30
0.0
  0
ENDBLK
  5
70EB
330
70E9
100
AcDbEntity
  8
0
100
AcDbBlockEnd
  0
BLOCK
  5
70F8
330
70F7
100
AcDbEntity
  8
0
100
AcDbBlockBegin
  2
*D23
 70
     1
 10
0.0
 20
0.0
 30
0.0
  3
*D23
  1

  0
LINE
  5
710D
330
70F7
100
AcDbEntity
  8
标注
370
    -2
100
AcDbLine
 10
1078.180281719956
 20
144.3158925871436
 30
0.0
 11
1082.295408139432
 21
144.3158925871436
 31
0.0
  0
LINE
  5
710E
330
70F7
100
AcDbEntity
  8
标注
370
    -2
100
AcDbLine
 10
1078.180281719956
 20
162.3158925870563
 30
0.0
 11
1082.295408139432
 21
162.3158925870563
 31
0.0
  0
LINE
  5
710F
330
70F7
100
AcDbEntity
  8
标注
370
    -2
100
AcDbLine
 10
1081.975408139432
 20
144.9658925871437
 30
0.0
 11
1081.975408139432
 21
152.4204287398967
 31
0.0
  0
LINE
  5
7110
330
70F7
100
AcDbEntity
  8
标注
370
    -2
100
AcDbLine
 10
1081.975408139432
 20
161.6658925870563
 30
0.0
 11
1081.975408139432
 21
154.2113564343033
 31
0.0
  0
SOLID
  5
7111
330
70F7
100
AcDbEntity
  8
标注
100
AcDbTrace
 10
1081.867074806099
 20
144.9658925871437
 30
0.0
 11
1082.083741472765
 21
144.9658925871437
 31
0.0
 12
1081.975408139432
 22
144.3158925871436
 32
0.0
 13
1081.975408139432
 23
144.3158925871436
 33
0.0
  0
SOLID
  5
7112
330
70F7
100
AcDbEntity
  8
标注
100
AcDbTrace
 10
1081.867074806099
 20
161.6658925870563
 30
0.0
 11
1082.083741472765
 21
161.6658925870563
 31
0.0
 12
1081.975408139432
 22
162.3158925870563
 32
0.0
 13
1081.975408139432
 23
162.3158925870563
 33
0.0
  0
MTEXT
  5
7113
330
70F7
100
AcDbEntity
  8
标注
100
AcDbMText
 10
1081.975408139432
 20
153.3158925871002
 30
0.0
 40
0.65
 41
0.0
 71
     5
 72
     1
  1
\A1;18"
 11
0.0000000000000001
 21
1.0
 31
0.0
 73
     1
 44
1.0
1001
ACAD
1000
MTEXTBEGIN
1070
    73
1070
     1
1070
    44
1040
1.0
1070
    74
1070
     0
1000
MTEXTEND
  0
POINT
  5
7114
330
70F7
100
AcDbEntity
  8
DEFPOINTS
 62
     0
100
AcDbPoint
 10
1077.300281719956
 20
144.3158925871436
 30
0.0
  0
POINT
  5
7115
330
70F7
100
AcDbEntity
  8
DEFPOINTS
 62
     0
100
AcDbPoint
 10
1077.300281719956
 20
162.3158925870563
 30
0.0
  0
POINT
  5
7116
330
70F7
100
AcDbEntity
  8
DEFPOINTS
 62
     0
100
AcDbPoint
 10
1081.975408139432
 20
162.3158925870563
 30
0.0
  0
ENDBLK
  5
70F9
330
70F7
100
AcDbEntity
  8
0
100
AcDbBlockEnd
  0
BLOCK
  5
7119
330
7118
100
AcDbEntity
  8
0
100
AcDbBlockBegin
  2
*D24
 70
     1
 10
0.0
 20
0.0
 30
0.0
  3
*D24
  1

  0
LINE
  5
7121
330
7118
100
AcDbEntity
  8
标注
370
    -2
100
AcDbLine
 10
1061.797623755785
 20
161.456843388985
 30
0.0
 11
1061.239385996835
 21
161.7898157669429
 31
0.0
  0
MTEXT
  5
7122
330
7118
100
AcDbEntity
  8
标注
100
AcDbMText
 10
1060.731848142556
 20
162.6045974052977
 30
0.0
 40
0.65
 41
0.0
 71
     5
 72
     1
  1
\A1;4-R3/8"
 11
0.8588273214608868
 21
-0.512265196858345
 31
0.0
 73
     1
 44
1.0
1001
ACAD
1000
MTEXTBEGIN
1070
    73
1070
     1
1070
    44
1040
1.0
1070
    74
1070
     0
1000
MTEXTEND
  0
LINE
  5
7123
330
7118
100
AcDbEntity
  8
标注
370
    -2
100
AcDbLine
 10
1062.693982507434
 20
160.9221917996663
 30
0.0
 11
1062.355861514734
 21
161.1238710110271
 31
0.0
  0
SOLID
  5
7124
330
7118
100
AcDbEntity
  8
标注
100
AcDbTrace
 10
1061.853119152111
 20
161.5498830154766
 30
0.0
 11
1061.742128359458
 21
161.3638037624934
 31
0.0
 12
1062.355861514734
 22
161.1238710110271
 32
0.0
 13
1062.355861514734
 23
161.1238710110271
 33
0.0
  0
POINT
  5
7125
330
7118
100
AcDbEntity
  8
DEFPOINTS
 62
     0
100
AcDbPoint
 10
1062.355861514734
 20
161.1238710110271
 30
0.0
  0
POINT
  5
7126
330
7118
100
AcDbEntity
  8
DEFPOINTS
 62
     0
100
AcDbPoint
 10
1062.693982507434
 20
160.9221917996663
 30
0.0
  0
ENDBLK
  5
711A
330
7118
100
AcDbEntity
  8
0
100
AcDbBlockEnd
  0
BLOCK
  5
7129
330
7128
100
AcDbEntity
  8
0
100
AcDbBlockBegin
  2
*D25
 70
     1
 10
0.0
 20
0.0
 30
0.0
  3
*D25
  1

  0
LINE
  5
712B
330
7128
100
AcDbEntity
  8
标注
370
    -2
100
AcDbLine
 10
1062.221541562554
 20
113.8724073341909
 30
0.0
 11
1062.221541562554
 21
111.9913198585199
 31
0.0
  0
LINE
  5
712C
330
7128
100
AcDbEntity
  8
标注
370
    -2
100
AcDbLine
 10
1077.379021877446
 20
113.8724073341909
 30
0.0
 11
1077.379021877446
 21
111.9913198585199
 31
0.0
  0
LINE
  5
712D
330
7128
100
AcDbEntity
  8
标注
370
    -2
100
AcDbLine
 10
1062.871541562554
 20
112.3113198585198
 30
0.0
 11
1068.147519100627
 21
112.3113198585198
 31
0.0
  0
LINE
  5
712E
330
7128
100
AcDbEntity
  8
标注
370
    -2
100
AcDbLine
 10
1076.729021877446
 20
112.3113198585198
 30
0.0
 11
1071.453044339372
 21
112.3113198585198
 31
0.0
  0
SOLID
  5
712F
330
7128
100
AcDbEntity
  8
标注
100
AcDbTrace
 10
1062.871541562554
 20
112.4196531918532
 30
0.0
 11
1062.871541562554
 21
112.2029865251865
 31
0.0
 12
1062.221541562554
 22
112.3113198585198
 32
0.0
 13
1062.221541562554
 23
112.3113198585198
 33
0.0
  0
SOLID
  5
7130
330
7128
100
AcDbEntity
  8
标注
100
AcDbTrace
 10
1076.729021877446
 20
112.4196531918532
 30
0.0
 11
1076.729021877446
 21
112.2029865251865
 31
0.0
 12
1077.379021877446
 22
112.3113198585198
 32
0.0
 13
1077.379021877446
 23
112.3113198585198
 33
0.0
  0
MTEXT
  5
7131
330
7128
100
AcDbEntity
  8
标注
100
AcDbMText
 10
1069.80028172
 20
112.3113198585198
 30
0.0
 40
0.65
 41
0.0
 71
     5
 72
     1
  1
\A1;15 1/8"
 73
     1
 44
1.0
1001
ACAD
1000
MTEXTBEGIN
1070
    73
1070
     1
1070
    44
1040
1.0
1070
    74
1070
     0
1000
MTEXTEND
  0
POINT
  5
7132
330
7128
100
AcDbEntity
  8
DEFPOINTS
 62
     0
100
AcDbPoint
 10
1062.221541562554
 20
114.7524073341908
 30
0.0
  0
POINT
  5
7133
330
7128
100
AcDbEntity
  8
DEFPOINTS
 62
     0
100
AcDbPoint
 10
1077.379021877446
 20
114.7524073341908
 30
0.0
  0
POINT
  5
7134
330
7128
100
AcDbEntity
  8
DEFPOINTS
 62
     0
100
AcDbPoint
 10
1077.379021877446
 20
112.3113198585198
 30
0.0
  0
ENDBLK
  5
712A
330
7128
100
AcDbEntity
  8
0
100
AcDbBlockEnd
  0
BLOCK
  5
7137
330
7136
100
AcDbEntity
  8
0
100
AcDbBlockBegin
  2
*D26
 70
     1
 10
0.0
 20
0.0
 30
0.0
  3
*D26
  1

  0
LINE
  5
7139
330
7136
100
AcDbEntity
  8
标注
370
    -2
100
AcDbLine
 10
1077.786580932566
 20
114.2799663893227
 30
0.0
 11
1080.439096881036
 21
114.2799663893227
 31
0.0
  0
LINE
  5
713A
330
7136
100
AcDbEntity
  8
标注
370
    -2
100
AcDbLine
 10
1077.786580932566
 20
130.4374467042205
 30
0.0
 11
1080.439096881036
 21
130.4374467042205
 31
0.0
  0
LINE
  5
713B
330
7136
100
AcDbEntity
  8
标注
370
    -2
100
AcDbLine
 10
1080.119096881036
 20
114.9299663893227
 30
0.0
 11
1080.119096881036
 21
120.7059439273992
 31
0.0
  0
LINE
  5
713C
330
7136
100
AcDbEntity
  8
标注
370
    -2
100
AcDbLine
 10
1080.119096881036
 20
129.7874467042205
 30
0.0
 11
1080.119096881036
 21
124.0114691661441
 31
0.0
  0
SOLID
  5
713D
330
7136
100
AcDbEntity
  8
标注
100
AcDbTrace
 10
1080.010763547702
 20
114.9299663893227
 30
0.0
 11
1080.227430214369
 21
114.9299663893227
 31
0.0
 12
1080.119096881036
 22
114.2799663893227
 32
0.0
 13
1080.119096881036
 23
114.2799663893227
 33
0.0
  0
SOLID
  5
713E
330
7136
100
AcDbEntity
  8
标注
100
AcDbTrace
 10
1080.010763547702
 20
129.7874467042205
 30
0.0
 11
1080.227430214369
 21
129.7874467042205
 31
0.0
 12
1080.119096881036
 22
130.4374467042205
 32
0.0
 13
1080.119096881036
 23
130.4374467042205
 33
0.0
  0
MTEXT
  5
713F
330
7136
100
AcDbEntity
  8
标注
100
AcDbMText
 10
1080.119096881036
 20
122.3587065467718
 30
0.0
 40
0.65
 41
0.0
 71
     5
 72
     1
  1
\A1;16 1/8"
 11
0.0000000000000001
 21
1.0
 31
0.0
 73
     1
 44
1.0
1001
ACAD
1000
MTEXTBEGIN
1070
    73
1070
     1
1070
    44
1040
1.0
1070
    74
1070
     0
1000
MTEXTEND
  0
POINT
  5
7140
330
7136
100
AcDbEntity
  8
DEFPOINTS
 62
     0
100
AcDbPoint
 10
1076.906580932566
 20
114.2799663893227
 30
0.0
  0
POINT
  5
7141
330
7136
100
AcDbEntity
  8
DEFPOINTS
 62
     0
100
AcDbPoint
 10
1076.906580932566
 20
130.4374467042205
 30
0.0
  0
POINT
  5
7142
330
7136
100
AcDbEntity
  8
DEFPOINTS
 62
     0
100
AcDbPoint
 10
1080.119096881036
 20
130.4374467042205
 30
0.0
  0
ENDBLK
  5
7138
330
7136
100
AcDbEntity
  8
0
100
AcDbBlockEnd
  0
BLOCK
  5
7145
330
7144
100
AcDbEntity
  8
0
100
AcDbBlockBegin
  2
*D27
 70
     1
 10
0.0
 20
0.0
 30
0.0
  3
*D27
  1

  0
LINE
  5
7159
330
7144
100
AcDbEntity
  8
标注
370
    -2
100
AcDbLine
 10
1061.892199624089
 20
113.9669024756968
 30
0.0
 11
1061.427891121667
 21
113.5120204969609
 31
0.0
  0
MTEXT
  5
715A
330
7144
100
AcDbEntity
  8
标注
100
AcDbMText
 10
1060.868928586479
 20
113.7487305025308
 30
0.0
 40
0.65
 41
0.0
 71
     5
 72
     1
  1
\A1;4-R1/2"
 11
0.7143207729568451
 21
0.6998184288244599
 31
0.0
 73
     1
 44
1.0
1001
ACAD
1000
MTEXTBEGIN
1070
    73
1070
     1
1070
    44
1040
1.0
1070
    74
1070
     0
1000
MTEXTEND
  0
LINE
  5
715B
330
7144
100
AcDbEntity
  8
标注
370
    -2
100
AcDbLine
 10
1062.693982507433
 20
114.7524073341907
 30
0.0
 11
1062.35650812651
 21
114.4217844544327
 31
0.0
  0
SOLID
  5
715C
330
7144
100
AcDbEntity
  8
标注
100
AcDbTrace
 10
1061.816385960966
 20
114.0442872261005
 30
0.0
 11
1061.968013287212
 21
113.8895177252931
 31
0.0
 12
1062.35650812651
 22
114.4217844544327
 32
0.0
 13
1062.35650812651
 23
114.4217844544327
 33
0.0
  0
POINT
  5
715D
330
7144
100
AcDbEntity
  8
DEFPOINTS
 62
     0
100
AcDbPoint
 10
1062.35650812651
 20
114.4217844544327
 30
0.0
  0
POINT
  5
715E
330
7144
100
AcDbEntity
  8
DEFPOINTS
 62
     0
100
AcDbPoint
 10
1062.693982507433
 20
114.7524073341907
 30
0.0
  0
ENDBLK
  5
7146
330
7144
100
AcDbEntity
  8
0
100
AcDbBlockEnd
  0
BLOCK
  5
727B
330
727A
100
AcDbEntity
  8
0
100
AcDbBlockBegin
  2
*D28
 70
     1
 10
0.0
 20
0.0
 30
0.0
  3
*D28
  1

  0
LINE
  5
727D
330
727A
100
AcDbEntity
  8
标注
370
    -2
100
AcDbLine
 10
1125.660921774582
 20
181.7131571807422
 30
0.0
 11
1127.231509896466
 21
181.7131571807422
 31
0.0
  0
LINE
  5
727E
330
727A
100
AcDbEntity
  8
标注
370
    -2
100
AcDbLine
 10
1125.660921774582
 20
172.7131571807422
 30
0.0
 11
1127.231509896466
 21
172.7131571807422
 31
0.0
  0
LINE
  5
727F
330
727A
100
AcDbEntity
  8
标注
370
    -2
100
AcDbLine
 10
1126.911509896466
 20
181.0631571807422
 30
0.0
 11
1126.911509896466
 21
177.886707658232
 31
0.0
  0
LINE
  5
7280
330
727A
100
AcDbEntity
  8
标注
370
    -2
100
AcDbLine
 10
1126.911509896466
 20
173.3631571807421
 30
0.0
 11
1126.911509896466
 21
176.5396067032525
 31
0.0
  0
SOLID
  5
7281
330
727A
100
AcDbEntity
  8
标注
100
AcDbTrace
 10
1126.803176563133
 20
181.0631571807422
 30
0.0
 11
1127.0198432298
 21
181.0631571807422
 31
0.0
 12
1126.911509896466
 22
181.7131571807422
 32
0.0
 13
1126.911509896466
 23
181.7131571807422
 33
0.0
  0
SOLID
  5
7282
330
727A
100
AcDbEntity
  8
标注
100
AcDbTrace
 10
1126.803176563133
 20
173.3631571807421
 30
0.0
 11
1127.0198432298
 21
173.3631571807421
 31
0.0
 12
1126.911509896466
 22
172.7131571807422
 32
0.0
 13
1126.911509896466
 23
172.7131571807422
 33
0.0
  0
MTEXT
  5
7283
330
727A
100
AcDbEntity
  8
标注
100
AcDbMText
 10
1126.911509896466
 20
177.2131571807424
 30
0.0
 40
0.65
 41
0.0
 71
     5
 72
     1
  1
\A1;9"
 11
0.0000000000000001
 21
1.0
 31
0.0
 73
     1
 44
1.0
1001
ACAD
1000
MTEXTBEGIN
1070
    73
1070
     1
1070
    44
1040
1.0
1070
    74
1070
     0
1000
MTEXTEND
  0
POINT
  5
7284
330
727A
100
AcDbEntity
  8
DEFPOINTS
 62
     0
100
AcDbPoint
 10
1124.780921774582
 20
181.7131571807422
 30
0.0
  0
POINT
  5
7285
330
727A
100
AcDbEntity
  8
DEFPOINTS
 62
     0
100
AcDbPoint
 10
1124.780921774582
 20
172.7131571807422
 30
0.0
  0
POINT
  5
7286
330
727A
100
AcDbEntity
  8
DEFPOINTS
 62
     0
100
AcDbPoint
 10
1126.911509896466
 20
172.7131571807422
 30
0.0
  0
ENDBLK
  5
727C
330
727A
100
AcDbEntity
  8
0
100
AcDbBlockEnd
  0
BLOCK
  5
7289
330
7288
100
AcDbEntity
  8
0
100
AcDbBlockBegin
  2
*D29
 70
     1
 10
0.0
 20
0.0
 30
0.0
  3
*D29
  1

  0
LINE
  5
728B
330
7288
100
AcDbEntity
  8
标注
370
    -2
100
AcDbLine
 10
1102.78092177466
 20
143.8895057462715
 30
0.0
 11
1102.78092177466
 21
141.1713936719328
 31
0.0
  0
LINE
  5
728C
330
7288
100
AcDbEntity
  8
标注
370
    -2
100
AcDbLine
 10
1123.780921774582
 20
143.8895057462715
 30
0.0
 11
1123.780921774582
 21
141.1713936719328
 31
0.0
  0
LINE
  5
728D
330
7288
100
AcDbEntity
  8
标注
370
    -2
100
AcDbLine
 10
1103.43092177466
 20
141.4913936719328
 30
0.0
 11
1112.349322183898
 21
141.4913936719328
 31
0.0
  0
LINE
  5
728E
330
7288
100
AcDbEntity
  8
标注
370
    -2
100
AcDbLine
 10
1123.130921774582
 20
141.4913936719328
 30
0.0
 11
1114.212521365344
 21
141.4913936719328
 31
0.0
  0
SOLID
  5
728F
330
7288
100
AcDbEntity
  8
标注
100
AcDbTrace
 10
1103.43092177466
 20
141.5997270052661
 30
0.0
 11
1103.43092177466
 21
141.3830603385995
 31
0.0
 12
1102.78092177466
 22
141.4913936719328
 32
0.0
 13
1102.78092177466
 23
141.4913936719328
 33
0.0
  0
SOLID
  5
7290
330
7288
100
AcDbEntity
  8
标注
100
AcDbTrace
 10
1123.130921774582
 20
141.5997270052661
 30
0.0
 11
1123.130921774582
 21
141.3830603385995
 31
0.0
 12
1123.780921774582
 22
141.4913936719328
 32
0.0
 13
1123.780921774582
 23
141.4913936719328
 33
0.0
  0
MTEXT
  5
7291
330
7288
100
AcDbEntity
  8
标注
100
AcDbMText
 10
1113.280921774621
 20
141.4913936719328
 30
0.0
 40
0.65
 41
0.0
 71
     5
 72
     1
  1
\A1;21"
 73
     1
 44
1.0
1001
ACAD
1000
MTEXTBEGIN
1070
    73
1070
     1
1070
    44
1040
1.0
1070
    74
1070
     0
1000
MTEXTEND
  0
POINT
  5
7292
330
7288
100
AcDbEntity
  8
DEFPOINTS
 62
     0
100
AcDbPoint
 10
1102.78092177466
 20
144.7695057462715
 30
0.0
  0
POINT
  5
7293
330
7288
100
AcDbEntity
  8
DEFPOINTS
 62
     0
100
AcDbPoint
 10
1123.780921774582
 20
144.7695057462715
 30
0.0
  0
POINT
  5
7294
330
7288
100
AcDbEntity
  8
DEFPOINTS
 62
     0
100
AcDbPoint
 10
1123.780921774582
 20
141.4913936719328
 30
0.0
  0
ENDBLK
  5
728A
330
7288
100
AcDbEntity
  8
0
100
AcDbBlockEnd
  0
BLOCK
  5
7385
330
7384
100
AcDbEntity
  8
0
100
AcDbBlockBegin
  2
*D30
 70
     1
 10
0.0
 20
0.0
 30
0.0
  3
*D30
  1

  0
LINE
  5
7448
330
7384
100
AcDbEntity
  8
标注
370
    -2
100
AcDbLine
 10
1092.375249099028
 20
179.4677590061394
 30
0.0
 11
1093.938912232119
 21
179.4677590061394
 31
0.0
  0
LINE
  5
7449
330
7384
100
AcDbEntity
  8
标注
370
    -2
100
AcDbLine
 10
1092.375249099028
 20
170.4677590061394
 30
0.0
 11
1093.938912232119
 21
170.4677590061394
 31
0.0
  0
LINE
  5
744A
330
7384
100
AcDbEntity
  8
标注
370
    -2
100
AcDbLine
 10
1093.618912232119
 20
178.8177590061394
 30
0.0
 11
1093.618912232119
 21
175.6413094836292
 31
0.0
  0
LINE
  5
744B
330
7384
100
AcDbEntity
  8
标注
370
    -2
100
AcDbLine
 10
1093.618912232119
 20
171.1177590061394
 30
0.0
 11
1093.618912232119
 21
174.2942085286497
 31
0.0
  0
SOLID
  5
744C
330
7384
100
AcDbEntity
  8
标注
100
AcDbTrace
 10
1093.510578898786
 20
178.8177590061394
 30
0.0
 11
1093.727245565452
 21
178.8177590061394
 31
0.0
 12
1093.618912232119
 22
179.4677590061394
 32
0.0
 13
1093.618912232119
 23
179.4677590061394
 33
0.0
  0
SOLID
  5
744D
330
7384
100
AcDbEntity
  8
标注
100
AcDbTrace
 10
1093.510578898786
 20
171.1177590061394
 30
0.0
 11
1093.727245565452
 21
171.1177590061394
 31
0.0
 12
1093.618912232119
 22
170.4677590061394
 32
0.0
 13
1093.618912232119
 23
170.4677590061394
 33
0.0
  0
MTEXT
  5
744E
330
7384
100
AcDbEntity
  8
标注
100
AcDbMText
 10
1093.618912232119
 20
174.9677590061396
 30
0.0
 40
0.65
 41
0.0
 71
     5
 72
     1
  1
\A1;9"
 11
0.0000000000000001
 21
1.0
 31
0.0
 73
     1
 44
1.0
1001
ACAD
1000
MTEXTBEGIN
1070
    73
1070
     1
1070
    44
1040
1.0
1070
    74
1070
     0
1000
MTEXTEND
  0
POINT
  5
744F
330
7384
100
AcDbEntity
  8
DEFPOINTS
 62
     0
100
AcDbPoint
 10
1091.495249099028
 20
179.4677590061394
 30
0.0
  0
POINT
  5
7450
330
7384
100
AcDbEntity
  8
DEFPOINTS
 62
     0
100
AcDbPoint
 10
1091.495249099028
 20
170.4677590061394
 30
0.0
  0
POINT
  5
7451
330
7384
100
AcDbEntity
  8
DEFPOINTS
 62
     0
100
AcDbPoint
 10
1093.618912232119
 20
170.4677590061394
 30
0.0
  0
ENDBLK
  5
7386
330
7384
100
AcDbEntity
  8
0
100
AcDbBlockEnd
  0
BLOCK
  5
7393
330
7392
100
AcDbEntity
  8
0
100
AcDbBlockBegin
  2
*D31
 70
     1
 10
0.0
 20
0.0
 30
0.0
  3
*D31
  1

  0
ARC
  5
7503
330
7392
100
AcDbEntity
  8
标注
  6
Continuous
 62
     3
370
    13
100
AcDbCircle
 10
1090.495249099016
 20
179.4677590061393
 30
0.0
 40
2.884844691926063
100
AcDbArc
 50
192.9370875454747
 51
208.3800567098591
  0
ARC
  5
7504
330
7392
100
AcDbEntity
  8
标注
  6
Continuous
 62
     3
370
    13
100
AcDbCircle
 10
1090.495249099016
 20
179.4677590061393
 30
0.0
 40
2.884844691926063
100
AcDbArc
 50
237.61485391164
 51
253.0578230760241
  0
SOLID
  5
7505
330
7392
100
AcDbEntity
  8
标注
 62
     3
100
AcDbTrace
 10
1087.575988251583
 20
178.8096924142572
 30
0.0
 11
1087.791275587085
 21
178.8341015850053
 31
0.0
 12
1087.61040440709
 22
179.4677590061393
 32
0.0
 13
1087.61040440709
 23
179.4677590061393
 33
0.0
  0
SOLID
  5
7506
330
7392
100
AcDbEntity
  8
标注
 62
     3
100
AcDbTrace
 10
1089.674279908552
 20
176.814646858323
 30
0.0
 11
1089.634893586732
 21
176.6015901473328
 31
0.0
 12
1090.293756880613
 22
176.5899595373686
 32
0.0
 13
1090.293756880613
 23
176.5899595373686
 33
0.0
  0
MTEXT
  5
7507
330
7392
100
AcDbEntity
  8
标注
 62
     3
100
AcDbMText
 10
1088.385319875883
 20
177.5003933639913
 30
0.0
 40
0.65
 41
0.0
 71
     5
 72
     1
  1
\A1;86\U+00B0
 11
0.6819658776273699
 21
-0.7313839906314133
 31
0.0
 73
     1
 44
1.0
1001
ACAD
1000
MTEXTBEGIN
1070
    73
1070
     1
1070
    44
1040
1.0
1070
    74
1070
     0
1000
MTEXTEND
  0
POINT
  5
7508
330
7392
100
AcDbEntity
  8
DEFPOINTS
 62
     0
100
AcDbPoint
 10
1087.963972122716
 20
178.0839361252091
 30
0.0
  0
POINT
  5
7509
330
7392
100
AcDbEntity
  8
DEFPOINTS
 62
     0
100
AcDbPoint
 10
1069.403474290523
 20
179.4677590061394
 30
0.0
  0
POINT
  5
750A
330
7392
100
AcDbEntity
  8
DEFPOINTS
 62
     0
100
AcDbPoint
 10
1090.488839079847
 20
179.3762083253888
 30
0.0
  0
POINT
  5
750B
330
7392
100
AcDbEntity
  8
DEFPOINTS
 62
     0
100
AcDbPoint
 10
1089.895315386576
 20
170.8992448836573
 30
0.0
  0
POINT
  5
750C
330
7392
100
AcDbEntity
  8
DEFPOINTS
 62
     0
100
AcDbPoint
 10
1090.587023907619
 20
179.4677590061394
 30
0.0
  0
ENDBLK
  5
7394
330
7392
100
AcDbEntity
  8
0
100
AcDbBlockEnd
  0
BLOCK
  5
73AC
330
73AB
100
AcDbEntity
  8
0
100
AcDbBlockBegin
  2
*D32
 70
     1
 10
0.0
 20
0.0
 30
0.0
  3
*D32
  1

  0
LINE
  5
745C
330
73AB
100
AcDbEntity
  8
标注
370
    -2
100
AcDbLine
 10
1069.686409283568
 20
170.2582457510156
 30
0.0
 11
1069.187240027704
 21
169.8419164894927
 31
0.0
  0
MTEXT
  5
745D
330
73AB
100
AcDbEntity
  8
标注
100
AcDbMText
 10
1069.116256475097
 20
170.5714918804614
 30
0.0
 40
0.65
 41
0.0
 71
     5
 72
     1
  1
\A1;R3/8"
 11
0.7679527013290091
 21
0.640506556189301
 31
0.0
 73
     1
 44
1.0
1001
ACAD
1000
MTEXTBEGIN
1070
    73
1070
     1
1070
    44
1040
1.0
1070
    74
1070
     0
1000
MTEXTEND
  0
LINE
  5
745E
330
73AB
100
AcDbEntity
  8
标注
370
    -2
100
AcDbLine
 10
1070.487922122631
 20
170.9267429480455
 30
0.0
 11
1070.185578539432
 21
170.6745750125385
 31
0.0
  0
SOLID
  5
745F
330
73AB
100
AcDbEntity
  8
标注
100
AcDbTrace
 10
1069.617021073314
 20
170.3414406269929
 30
0.0
 11
1069.755797493822
 21
170.1750508750383
 31
0.0
 12
1070.185578539432
 22
170.6745750125385
 32
0.0
 13
1070.185578539432
 23
170.6745750125385
 33
0.0
  0
POINT
  5
7460
330
73AB
100
AcDbEntity
  8
DEFPOINTS
 62
     0
100
AcDbPoint
 10
1070.185578539432
 20
170.6745750125385
 30
0.0
  0
POINT
  5
7461
330
73AB
100
AcDbEntity
  8
DEFPOINTS
 62
     0
100
AcDbPoint
 10
1070.487922122631
 20
170.9267429480455
 30
0.0
  0
ENDBLK
  5
73AD
330
73AB
100
AcDbEntity
  8
0
100
AcDbBlockEnd
  0
BLOCK
  5
73B6
330
73B5
100
AcDbEntity
  8
0
100
AcDbBlockBegin
  2
*D33
 70
     1
 10
0.0
 20
0.0
 30
0.0
  3
*D33
  1

  0
LINE
  5
7462
330
73B5
100
AcDbEntity
  8
标注
370
    -2
100
AcDbLine
 10
1069.495249099115
 20
141.6441075716688
 30
0.0
 11
1069.495249099115
 21
138.9264425243302
 31
0.0
  0
LINE
  5
7463
330
73B5
100
AcDbEntity
  8
标注
370
    -2
100
AcDbLine
 10
1090.495249099028
 20
141.6441075716688
 30
0.0
 11
1090.495249099028
 21
138.9264425243302
 31
0.0
  0
LINE
  5
7464
330
73B5
100
AcDbEntity
  8
标注
370
    -2
100
AcDbLine
 10
1070.145249099115
 20
139.2464425243302
 30
0.0
 11
1079.063649508348
 21
139.2464425243302
 31
0.0
  0
LINE
  5
7465
330
73B5
100
AcDbEntity
  8
标注
370
    -2
100
AcDbLine
 10
1089.845249099028
 20
139.2464425243302
 30
0.0
 11
1080.926848689794
 21
139.2464425243302
 31
0.0
  0
SOLID
  5
7466
330
73B5
100
AcDbEntity
  8
标注
100
AcDbTrace
 10
1070.145249099115
 20
139.3547758576636
 30
0.0
 11
1070.145249099115
 21
139.1381091909969
 31
0.0
 12
1069.495249099115
 22
139.2464425243302
 32
0.0
 13
1069.495249099115
 23
139.2464425243302
 33
0.0
  0
SOLID
  5
7467
330
73B5
100
AcDbEntity
  8
标注
100
AcDbTrace
 10
1089.845249099028
 20
139.3547758576636
 30
0.0
 11
1089.845249099028
 21
139.1381091909969
 31
0.0
 12
1090.495249099028
 22
139.2464425243302
 32
0.0
 13
1090.495249099028
 23
139.2464425243302
 33
0.0
  0
MTEXT
  5
7468
330
73B5
100
AcDbEntity
  8
标注
100
AcDbMText
 10
1079.995249099071
 20
139.2464425243302
 30
0.0
 40
0.65
 41
0.0
 71
     5
 72
     1
  1
\A1;21"
 73
     1
 44
1.0
1001
ACAD
1000
MTEXTBEGIN
1070
    73
1070
     1
1070
    44
1040
1.0
1070
    74
1070
     0
1000
MTEXTEND
  0
POINT
  5
7469
330
73B5
100
AcDbEntity
  8
DEFPOINTS
 62
     0
100
AcDbPoint
 10
1069.495249099115
 20
142.5241075716688
 30
0.0
  0
POINT
  5
746A
330
73B5
100
AcDbEntity
  8
DEFPOINTS
 62
     0
100
AcDbPoint
 10
1090.495249099028
 20
142.5241075716688
 30
0.0
  0
POINT
  5
746B
330
73B5
100
AcDbEntity
  8
DEFPOINTS
 62
     0
100
AcDbPoint
 10
1090.495249099028
 20
139.2464425243302
 30
0.0
  0
ENDBLK
  5
73B7
330
73B5
100
AcDbEntity
  8
0
100
AcDbBlockEnd
  0
BLOCK
  5
73C4
330
73C3
100
AcDbEntity
  8
0
100
AcDbBlockBegin
  2
*D34
 70
     1
 10
0.0
 20
0.0
 30
0.0
  3
*D34
  1

  0
LINE
  5
746C
330
73C3
100
AcDbEntity
  8
标注
370
    -2
100
AcDbLine
 10
1068.495249099115
 20
141.0979826553197
 30
0.0
 11
1068.495249099115
 21
136.9833930449741
 31
0.0
  0
LINE
  5
746D
330
73C3
100
AcDbEntity
  8
标注
370
    -2
100
AcDbLine
 10
1091.495249099028
 20
141.0979826553197
 30
0.0
 11
1091.495249099028
 21
136.9833930449741
 31
0.0
  0
LINE
  5
746E
330
73C3
100
AcDbEntity
  8
标注
370
    -2
100
AcDbLine
 10
1069.145249099115
 20
137.3033930449741
 30
0.0
 11
1079.063649508348
 21
137.3033930449741
 31
0.0
  0
LINE
  5
746F
330
73C3
100
AcDbEntity
  8
标注
370
    -2
100
AcDbLine
 10
1090.845249099028
 20
137.3033930449741
 30
0.0
 11
1080.926848689794
 21
137.3033930449741
 31
0.0
  0
SOLID
  5
7470
330
73C3
100
AcDbEntity
  8
标注
100
AcDbTrace
 10
1069.145249099115
 20
137.4117263783074
 30
0.0
 11
1069.145249099115
 21
137.1950597116408
 31
0.0
 12
1068.495249099115
 22
137.3033930449741
 32
0.0
 13
1068.495249099115
 23
137.3033930449741
 33
0.0
  0
SOLID
  5
7471
330
73C3
100
AcDbEntity
  8
标注
100
AcDbTrace
 10
1090.845249099028
 20
137.4117263783074
 30
0.0
 11
1090.845249099028
 21
137.1950597116408
 31
0.0
 12
1091.495249099028
 22
137.3033930449741
 32
0.0
 13
1091.495249099028
 23
137.3033930449741
 33
0.0
  0
MTEXT
  5
7472
330
73C3
100
AcDbEntity
  8
标注
100
AcDbMText
 10
1079.995249099071
 20
137.3033930449741
 30
0.0
 40
0.65
 41
0.0
 71
     5
 72
     1
  1
\A1;23"
 73
     1
 44
1.0
1001
ACAD
1000
MTEXTBEGIN
1070
    73
1070
     1
1070
    44
1040
1.0
1070
    74
1070
     0
1000
MTEXTEND
  0
POINT
  5
7473
330
73C3
100
AcDbEntity
  8
DEFPOINTS
 62
     0
100
AcDbPoint
 10
1068.495249099115
 20
141.9779826553197
 30
0.0
  0
POINT
  5
7474
330
73C3
100
AcDbEntity
  8
DEFPOINTS
 62
     0
100
AcDbPoint
 10
1091.495249099028
 20
141.9779826553197
 30
0.0
  0
POINT
  5
7475
330
73C3
100
AcDbEntity
  8
DEFPOINTS
 62
     0
100
AcDbPoint
 10
1091.495249099028
 20
137.3033930449741
 30
0.0
  0
ENDBLK
  5
73C5
330
73C3
100
AcDbEntity
  8
0
100
AcDbBlockEnd
  0
BLOCK
  5
73D2
330
73D1
100
AcDbEntity
  8
0
100
AcDbBlockBegin
  2
*D35
 70
     1
 10
0.0
 20
0.0
 30
0.0
  3
*D35
  1

  0
LINE
  5
7476
330
73D1
100
AcDbEntity
  8
标注
370
    -2
100
AcDbLine
 10
1090.981548311638
 20
142.1304067842496
 30
0.0
 11
1093.835831287696
 21
142.1304067842496
 31
0.0
  0
LINE
  5
7477
330
73D1
100
AcDbEntity
  8
标注
370
    -2
100
AcDbLine
 10
1090.981548311638
 20
158.1304067842012
 30
0.0
 11
1093.835831287696
 21
158.1304067842012
 31
0.0
  0
LINE
  5
7478
330
73D1
100
AcDbEntity
  8
标注
370
    -2
100
AcDbLine
 10
1093.515831287696
 20
142.7804067842496
 30
0.0
 11
1093.515831287696
 21
149.2349429370221
 31
0.0
  0
LINE
  5
7479
330
73D1
100
AcDbEntity
  8
标注
370
    -2
100
AcDbLine
 10
1093.515831287696
 20
157.4804067842012
 30
0.0
 11
1093.515831287696
 21
151.0258706314287
 31
0.0
  0
SOLID
  5
747A
330
73D1
100
AcDbEntity
  8
标注
100
AcDbTrace
 10
1093.407497954363
 20
142.7804067842496
 30
0.0
 11
1093.624164621029
 21
142.7804067842496
 31
0.0
 12
1093.515831287696
 22
142.1304067842496
 32
0.0
 13
1093.515831287696
 23
142.1304067842496
 33
0.0
  0
SOLID
  5
747B
330
73D1
100
AcDbEntity
  8
标注
100
AcDbTrace
 10
1093.407497954363
 20
157.4804067842012
 30
0.0
 11
1093.624164621029
 21
157.4804067842012
 31
0.0
 12
1093.515831287696
 22
158.1304067842012
 32
0.0
 13
1093.515831287696
 23
158.1304067842012
 33
0.0
  0
MTEXT
  5
747C
330
73D1
100
AcDbEntity
  8
标注
100
AcDbMText
 10
1093.515831287696
 20
150.1304067842256
 30
0.0
 40
0.65
 41
0.0
 71
     5
 72
     1
  1
\A1;16"
 11
0.0000000000000001
 21
1.0
 31
0.0
 73
     1
 44
1.0
1001
ACAD
1000
MTEXTBEGIN
1070
    73
1070
     1
1070
    44
1040
1.0
1070
    74
1070
     0
1000
MTEXTEND
  0
POINT
  5
747D
330
73D1
100
AcDbEntity
  8
DEFPOINTS
 62
     0
100
AcDbPoint
 10
1090.101548311638
 20
142.1304067842496
 30
0.0
  0
POINT
  5
747E
330
73D1
100
AcDbEntity
  8
DEFPOINTS
 62
     0
100
AcDbPoint
 10
1090.101548311638
 20
158.1304067842012
 30
0.0
  0
POINT
  5
747F
330
73D1
100
AcDbEntity
  8
DEFPOINTS
 62
     0
100
AcDbPoint
 10
1093.515831287696
 20
158.1304067842012
 30
0.0
  0
ENDBLK
  5
73D3
330
73D1
100
AcDbEntity
  8
0
100
AcDbBlockEnd
  0
BLOCK
  5
73E0
330
73DF
100
AcDbEntity
  8
0
100
AcDbBlockBegin
  2
*D36
 70
     1
 10
0.0
 20
0.0
 30
0.0
  3
*D36
  1

  0
LINE
  5
7480
330
73DF
100
AcDbEntity
  8
标注
370
    -2
100
AcDbLine
 10
1091.527673227987
 20
159.1304067841913
 30
0.0
 11
1095.76481880432
 21
159.1304067841913
 31
0.0
  0
LINE
  5
7481
330
73DF
100
AcDbEntity
  8
标注
370
    -2
100
AcDbLine
 10
1091.375249099028
 20
141.1304067842495
 30
0.0
 11
1095.76481880432
 21
141.1304067842495
 31
0.0
  0
LINE
  5
7482
330
73DF
100
AcDbEntity
  8
标注
370
    -2
100
AcDbLine
 10
1095.44481880432
 20
158.4804067841913
 30
0.0
 11
1095.44481880432
 21
151.0258706314237
 31
0.0
  0
LINE
  5
7483
330
73DF
100
AcDbEntity
  8
标注
370
    -2
100
AcDbLine
 10
1095.44481880432
 20
141.7804067842496
 30
0.0
 11
1095.44481880432
 21
149.2349429370172
 31
0.0
  0
SOLID
  5
7484
330
73DF
100
AcDbEntity
  8
标注
100
AcDbTrace
 10
1095.336485470987
 20
158.4804067841913
 30
0.0
 11
1095.553152137653
 21
158.4804067841913
 31
0.0
 12
1095.44481880432
 22
159.1304067841913
 32
0.0
 13
1095.44481880432
 23
159.1304067841913
 33
0.0
  0
SOLID
  5
7485
330
73DF
100
AcDbEntity
  8
标注
100
AcDbTrace
 10
1095.336485470987
 20
141.7804067842496
 30
0.0
 11
1095.553152137653
 21
141.7804067842496
 31
0.0
 12
1095.44481880432
 22
141.1304067842495
 32
0.0
 13
1095.44481880432
 23
141.1304067842495
 33
0.0
  0
MTEXT
  5
7486
330
73DF
100
AcDbEntity
  8
标注
100
AcDbMText
 10
1095.44481880432
 20
150.1304067842206
 30
0.0
 40
0.65
 41
0.0
 71
     5
 72
     1
  1
\A1;18"
 11
0.0000000000000001
 21
1.0
 31
0.0
 73
     1
 44
1.0
1001
ACAD
1000
MTEXTBEGIN
1070
    73
1070
     1
1070
    44
1040
1.0
1070
    74
1070
     0
1000
MTEXTEND
  0
POINT
  5
7487
330
73DF
100
AcDbEntity
  8
DEFPOINTS
 62
     0
100
AcDbPoint
 10
1090.647673227987
 20
159.1304067841913
 30
0.0
  0
POINT
  5
7488
330
73DF
100
AcDbEntity
  8
DEFPOINTS
 62
     0
100
AcDbPoint
 10
1090.495249099028
 20
141.1304067842495
 30
0.0
  0
POINT
  5
7489
330
73DF
100
AcDbEntity
  8
DEFPOINTS
 62
     0
100
AcDbPoint
 10
1095.44481880432
 20
141.1304067842495
 30
0.0
  0
ENDBLK
  5
73E1
330
73DF
100
AcDbEntity
  8
0
100
AcDbBlockEnd
  0
BLOCK
  5
73EE
330
73ED
100
AcDbEntity
  8
0
100
AcDbBlockBegin
  2
*D37
 70
     1
 10
0.0
 20
0.0
 30
0.0
  3
*D37
  1

  0
LINE
  5
748A
330
73ED
100
AcDbEntity
  8
标注
370
    -2
100
AcDbLine
 10
1069.372046530698
 20
158.6434155723406
 30
0.0
 11
1069.050127466028
 21
159.2080996572964
 31
0.0
  0
MTEXT
  5
748B
330
73ED
100
AcDbEntity
  8
标注
100
AcDbMText
 10
1068.216135156376
 20
159.7336474873393
 30
0.0
 40
0.65
 41
0.0
 71
     5
 72
     1
  1
\A1;R3/8"
 11
0.4952600994915825
 21
-0.8687447460857462
 31
0.0
 73
     1
 44
1.0
1001
ACAD
1000
MTEXTBEGIN
1070
    73
1070
     1
1070
    44
1040
1.0
1070
    74
1070
     0
1000
MTEXTEND
  0
LINE
  5
748C
330
73ED
100
AcDbEntity
  8
标注
370
    -2
100
AcDbLine
 10
1069.888949886505
 20
157.7367059968012
 30
0.0
 11
1069.693965595368
 21
158.0787314873848
 31
0.0
  0
SOLID
  5
748D
330
73ED
100
AcDbEntity
  8
标注
100
AcDbTrace
 10
1069.466160544857
 20
158.6970687497855
 30
0.0
 11
1069.277932516539
 21
158.5897623948956
 31
0.0
 12
1069.693965595368
 22
158.0787314873848
 32
0.0
 13
1069.693965595368
 23
158.0787314873848
 33
0.0
  0
POINT
  5
748E
330
73ED
100
AcDbEntity
  8
DEFPOINTS
 62
     0
100
AcDbPoint
 10
1069.693965595368
 20
158.0787314873848
 30
0.0
  0
POINT
  5
748F
330
73ED
100
AcDbEntity
  8
DEFPOINTS
 62
     0
100
AcDbPoint
 10
1069.888949886505
 20
157.7367059968012
 30
0.0
  0
ENDBLK
  5
73EF
330
73ED
100
AcDbEntity
  8
0
100
AcDbBlockEnd
  0
BLOCK
  5
7404
330
7403
100
AcDbEntity
  8
0
100
AcDbBlockBegin
  2
*D38
 70
     1
 10
0.0
 20
0.0
 30
0.0
  3
*D38
  1

  0
LINE
  5
7490
330
7403
100
AcDbEntity
  8
标注
370
    -2
100
AcDbLine
 10
1069.416508941625
 20
110.5669898880409
 30
0.0
 11
1069.416508941625
 21
108.5599219055725
 31
0.0
  0
LINE
  5
7491
330
7403
100
AcDbEntity
  8
标注
370
    -2
100
AcDbLine
 10
1090.573989256506
 20
110.5669898880409
 30
0.0
 11
1090.573989256506
 21
108.5599219055725
 31
0.0
  0
LINE
  5
7492
330
7403
100
AcDbEntity
  8
标注
370
    -2
100
AcDbLine
 10
1070.066508941625
 20
108.8799219055725
 30
0.0
 11
1078.306350736173
 21
108.8799219055725
 31
0.0
  0
LINE
  5
7493
330
7403
100
AcDbEntity
  8
标注
370
    -2
100
AcDbLine
 10
1089.923989256506
 20
108.8799219055725
 30
0.0
 11
1081.684147461958
 21
108.8799219055725
 31
0.0
  0
SOLID
  5
7494
330
7403
100
AcDbEntity
  8
标注
100
AcDbTrace
 10
1070.066508941625
 20
108.9882552389058
 30
0.0
 11
1070.066508941625
 21
108.7715885722392
 31
0.0
 12
1069.416508941625
 22
108.8799219055725
 32
0.0
 13
1069.416508941625
 23
108.8799219055725
 33
0.0
  0
SOLID
  5
7495
330
7403
100
AcDbEntity
  8
标注
100
AcDbTrace
 10
1089.923989256506
 20
108.9882552389058
 30
0.0
 11
1089.923989256506
 21
108.7715885722392
 31
0.0
 12
1090.573989256506
 22
108.8799219055725
 32
0.0
 13
1090.573989256506
 23
108.8799219055725
 33
0.0
  0
MTEXT
  5
7496
330
7403
100
AcDbEntity
  8
标注
100
AcDbMText
 10
1079.995249099066
 20
108.8799219055725
 30
0.0
 40
0.65
 41
0.0
 71
     5
 72
     1
  1
\A1;21 1/8"
 73
     1
 44
1.0
1001
ACAD
1000
MTEXTBEGIN
1070
    73
1070
     1
1070
    44
1040
1.0
1070
    74
1070
     0
1000
MTEXTEND
  0
POINT
  5
7497
330
7403
100
AcDbEntity
  8
DEFPOINTS
 62
     0
100
AcDbPoint
 10
1069.416508941625
 20
111.4469898880409
 30
0.0
  0
POINT
  5
7498
330
7403
100
AcDbEntity
  8
DEFPOINTS
 62
     0
100
AcDbPoint
 10
1090.573989256506
 20
111.4469898880409
 30
0.0
  0
POINT
  5
7499
330
7403
100
AcDbEntity
  8
DEFPOINTS
 62
     0
100
AcDbPoint
 10
1090.573989256506
 20
108.8799219055725
 30
0.0
  0
ENDBLK
  5
7405
330
7403
100
AcDbEntity
  8
0
100
AcDbBlockEnd
  0
BLOCK
  5
7412
330
7411
100
AcDbEntity
  8
0
100
AcDbBlockBegin
  2
*D39
 70
     1
 10
0.0
 20
0.0
 30
0.0
  3
*D39
  1

  0
LINE
  5
749A
330
7411
100
AcDbEntity
  8
标注
370
    -2
100
AcDbLine
 10
1090.981548311638
 20
110.9745489431436
 30
0.0
 11
1093.014514571957
 21
110.9745489431436
 31
0.0
  0
LINE
  5
749B
330
7411
100
AcDbEntity
  8
标注
370
    -2
100
AcDbLine
 10
1090.981548311638
 20
127.1320292580533
 30
0.0
 11
1093.014514571957
 21
127.1320292580533
 31
0.0
  0
LINE
  5
749C
330
7411
100
AcDbEntity
  8
标注
370
    -2
100
AcDbLine
 10
1092.694514571957
 20
111.6245489431437
 30
0.0
 11
1092.694514571957
 21
117.400526481226
 31
0.0
  0
LINE
  5
749D
330
7411
100
AcDbEntity
  8
标注
370
    -2
100
AcDbLine
 10
1092.694514571957
 20
126.4820292580533
 30
0.0
 11
1092.694514571957
 21
120.7060517199709
 31
0.0
  0
SOLID
  5
749E
330
7411
100
AcDbEntity
  8
标注
100
AcDbTrace
 10
1092.586181238623
 20
111.6245489431437
 30
0.0
 11
1092.80284790529
 21
111.6245489431437
 31
0.0
 12
1092.694514571957
 22
110.9745489431436
 32
0.0
 13
1092.694514571957
 23
110.9745489431436
 33
0.0
  0
SOLID
  5
749F
330
7411
100
AcDbEntity
  8
标注
100
AcDbTrace
 10
1092.586181238623
 20
126.4820292580533
 30
0.0
 11
1092.80284790529
 21
126.4820292580533
 31
0.0
 12
1092.694514571957
 22
127.1320292580533
 32
0.0
 13
1092.694514571957
 23
127.1320292580533
 33
0.0
  0
MTEXT
  5
74A0
330
7411
100
AcDbEntity
  8
标注
100
AcDbMText
 10
1092.694514571957
 20
119.0532891005987
 30
0.0
 40
0.65
 41
0.0
 71
     5
 72
     1
  1
\A1;16 1/8"
 11
0.0000000000000001
 21
1.0
 31
0.0
 73
     1
 44
1.0
1001
ACAD
1000
MTEXTBEGIN
1070
    73
1070
     1
1070
    44
1040
1.0
1070
    74
1070
     0
1000
MTEXTEND
  0
POINT
  5
74A1
330
7411
100
AcDbEntity
  8
DEFPOINTS
 62
     0
100
AcDbPoint
 10
1090.101548311638
 20
110.9745489431436
 30
0.0
  0
POINT
  5
74A2
330
7411
100
AcDbEntity
  8
DEFPOINTS
 62
     0
100
AcDbPoint
 10
1090.101548311638
 20
127.1320292580533
 30
0.0
  0
POINT
  5
74A3
330
7411
100
AcDbEntity
  8
DEFPOINTS
 62
     0
100
AcDbPoint
 10
1092.694514571957
 20
127.1320292580533
 30
0.0
  0
ENDBLK
  5
7413
330
7411
100
AcDbEntity
  8
0
100
AcDbBlockEnd
  0
BLOCK
  5
7420
330
741F
100
AcDbEntity
  8
0
100
AcDbBlockBegin
  2
*D40
 70
     1
 10
0.0
 20
0.0
 30
0.0
  3
*D40
  1

  0
LINE
  5
74A4
330
741F
100
AcDbEntity
  8
标注
370
    -2
100
AcDbLine
 10
1069.086687221453
 20
127.4446031480695
 30
0.0
 11
1068.622100879818
 21
127.8992013565632
 31
0.0
  0
MTEXT
  5
74A5
330
741F
100
AcDbEntity
  8
标注
100
AcDbMText
 10
1068.976085307511
 20
128.324172192478
 30
0.0
 40
0.65
 41
0.0
 71
     5
 72
     1
  1
\A1;4-R1/2"
 11
0.7147482179008577
 21
-0.6993818592210898
 31
0.0
 73
     1
 44
1.0
1001
ACAD
1000
MTEXTBEGIN
1070
    73
1070
     1
1070
    44
1040
1.0
1070
    74
1070
     0
1000
MTEXTEND
  0
LINE
  5
74A6
330
741F
100
AcDbEntity
  8
标注
370
    -2
100
AcDbLine
 10
1069.888949886505
 20
126.6595883131734
 30
0.0
 11
1069.551273563088
 21
126.9900049395758
 31
0.0
  0
SOLID
  5
74A7
330
741F
100
AcDbEntity
  8
标注
100
AcDbTrace
 10
1069.162453589535
 20
127.5220342050088
 30
0.0
 11
1069.010920853371
 21
127.3671720911303
 31
0.0
 12
1069.551273563088
 22
126.9900049395758
 32
0.0
 13
1069.551273563088
 23
126.9900049395758
 33
0.0
  0
POINT
  5
74A8
330
741F
100
AcDbEntity
  8
DEFPOINTS
 62
     0
100
AcDbPoint
 10
1069.551273563088
 20
126.9900049395758
 30
0.0
  0
POINT
  5
74A9
330
741F
100
AcDbEntity
  8
DEFPOINTS
 62
     0
100
AcDbPoint
 10
1069.888949886505
 20
126.6595883131734
 30
0.0
  0
ENDBLK
  5
7421
330
741F
100
AcDbEntity
  8
0
100
AcDbBlockEnd
  0
BLOCK
  5
7650
330
764F
100
AcDbEntity
  8
0
100
AcDbBlockBegin
  2
*D43
 70
     1
 10
0.0
 20
0.0
 30
0.0
  3
*D43
  1

  0
LINE
  5
76EE
330
764F
100
AcDbEntity
  8
标注
  6
Continuous
370
    -2
100
AcDbLine
 10
1089.002466363515
 20
140.5823268685727
 30
0.0
 11
1089.002466363515
 21
137.6891985751556
 31
0.0
  0
LINE
  5
76EF
330
764F
100
AcDbEntity
  8
标注
  6
Continuous
370
    -2
100
AcDbLine
 10
1108.002428363531
 20
140.5823268685727
 30
0.0
 11
1108.002428363531
 21
137.6891985751556
 31
0.0
  0
LINE
  5
76F0
330
764F
100
AcDbEntity
  8
标注
  6
Continuous
370
    -2
100
AcDbLine
 10
1089.652466363515
 20
138.0091985751556
 30
0.0
 11
1097.60698351632
 21
138.0091985751556
 31
0.0
  0
LINE
  5
76F1
330
764F
100
AcDbEntity
  8
标注
  6
Continuous
370
    -2
100
AcDbLine
 10
1107.35242836353
 20
138.0091985751556
 30
0.0
 11
1099.397911210726
 21
138.0091985751556
 31
0.0
  0
SOLID
  5
76F2
330
764F
100
AcDbEntity
  8
标注
100
AcDbTrace
 10
1089.652466363515
 20
138.1175319084889
 30
0.0
 11
1089.652466363515
 21
137.9008652418223
 31
0.0
 12
1089.002466363515
 22
138.0091985751556
 32
0.0
 13
1089.002466363515
 23
138.0091985751556
 33
0.0
  0
SOLID
  5
76F3
330
764F
100
AcDbEntity
  8
标注
100
AcDbTrace
 10
1107.35242836353
 20
138.1175319084889
 30
0.0
 11
1107.35242836353
 21
137.9008652418223
 31
0.0
 12
1108.002428363531
 22
138.0091985751556
 32
0.0
 13
1108.002428363531
 23
138.0091985751556
 33
0.0
  0
MTEXT
  5
76F4
330
764F
100
AcDbEntity
  8
标注
100
AcDbMText
 10
1098.502447363523
 20
138.0091985751556
 30
0.0
 40
0.65
 41
0.0
 71
     5
 72
     1
  1
\A1;19"
 73
     1
 44
1.0
1001
ACAD
1000
MTEXTBEGIN
1070
    73
1070
     1
1070
    44
1040
1.0
1070
    74
1070
     0
1000
MTEXTEND
  0
POINT
  5
76F5
330
764F
100
AcDbEntity
  8
DEFPOINTS
 62
     0
100
AcDbPoint
 10
1089.002466363515
 20
141.4623268685727
 30
0.0
  0
POINT
  5
76F6
330
764F
100
AcDbEntity
  8
DEFPOINTS
 62
     0
100
AcDbPoint
 10
1108.002428363531
 20
141.4623268685727
 30
0.0
  0
POINT
  5
76F7
330
764F
100
AcDbEntity
  8
DEFPOINTS
 62
     0
100
AcDbPoint
 10
1108.002428363531
 20
138.0091985751556
 30
0.0
  0
ENDBLK
  5
7651
330
764F
100
AcDbEntity
  8
0
100
AcDbBlockEnd
  0
BLOCK
  5
765E
330
765D
100
AcDbEntity
  8
0
100
AcDbBlockBegin
  2
*D44
 70
     1
 10
0.0
 20
0.0
 30
0.0
  3
*D44
  1

  0
LINE
  5
76F8
330
765D
100
AcDbEntity
  8
标注
  6
Continuous
370
    -2
100
AcDbLine
 10
1109.002426363515
 20
140.5823268685727
 30
0.0
 11
1109.002426363515
 21
137.6891985751556
 31
0.0
  0
LINE
  5
76F9
330
765D
100
AcDbEntity
  8
标注
  6
Continuous
370
    -2
100
AcDbLine
 10
1119.002406363538
 20
140.5823268685727
 30
0.0
 11
1119.002406363538
 21
137.6891985751556
 31
0.0
  0
LINE
  5
76FA
330
765D
100
AcDbEntity
  8
标注
  6
Continuous
370
    -2
100
AcDbLine
 10
1109.652426363515
 20
138.0091985751556
 30
0.0
 11
1113.106952516323
 21
138.0091985751556
 31
0.0
  0
LINE
  5
76FB
330
765D
100
AcDbEntity
  8
标注
  6
Continuous
370
    -2
100
AcDbLine
 10
1118.352406363538
 20
138.0091985751556
 30
0.0
 11
1114.89788021073
 21
138.0091985751556
 31
0.0
  0
SOLID
  5
76FC
330
765D
100
AcDbEntity
  8
标注
100
AcDbTrace
 10
1109.652426363515
 20
138.1175319084889
 30
0.0
 11
1109.652426363515
 21
137.9008652418223
 31
0.0
 12
1109.002426363515
 22
138.0091985751556
 32
0.0
 13
1109.002426363515
 23
138.0091985751556
 33
0.0
  0
SOLID
  5
76FD
330
765D
100
AcDbEntity
  8
标注
100
AcDbTrace
 10
1118.352406363538
 20
138.1175319084889
 30
0.0
 11
1118.352406363538
 21
137.9008652418223
 31
0.0
 12
1119.002406363538
 22
138.0091985751556
 32
0.0
 13
1119.002406363538
 23
138.0091985751556
 33
0.0
  0
MTEXT
  5
76FE
330
765D
100
AcDbEntity
  8
标注
100
AcDbMText
 10
1114.002416363527
 20
138.0091985751556
 30
0.0
 40
0.65
 41
0.0
 71
     5
 72
     1
  1
\A1;10"
 73
     1
 44
1.0
1001
ACAD
1000
MTEXTBEGIN
1070
    73
1070
     1
1070
    44
1040
1.0
1070
    74
1070
     0
1000
MTEXTEND
  0
POINT
  5
76FF
330
765D
100
AcDbEntity
  8
DEFPOINTS
 62
     0
100
AcDbPoint
 10
1109.002426363515
 20
141.4623268685727
 30
0.0
  0
POINT
  5
7700
330
765D
100
AcDbEntity
  8
DEFPOINTS
 62
     0
100
AcDbPoint
 10
1119.002406363538
 20
141.4623268685727
 30
0.0
  0
POINT
  5
7701
330
765D
100
AcDbEntity
  8
DEFPOINTS
 62
     0
100
AcDbPoint
 10
1119.002406363538
 20
138.0091985751556
 30
0.0
  0
ENDBLK
  5
765F
330
765D
100
AcDbEntity
  8
0
100
AcDbBlockEnd
  0
BLOCK
  5
766C
330
766B
100
AcDbEntity
  8
0
100
AcDbBlockBegin
  2
*D45
 70
     1
 10
0.0
 20
0.0
 30
0.0
  3
*D45
  1

  0
LINE
  5
7702
330
766B
100
AcDbEntity
  8
标注
  6
Continuous
370
    -2
100
AcDbLine
 10
1088.002468363515
 20
140.0362030444613
 30
0.0
 11
1088.002468363515
 21
135.8571036128273
 31
0.0
  0
LINE
  5
7703
330
766B
100
AcDbEntity
  8
标注
  6
Continuous
370
    -2
100
AcDbLine
 10
1120.002404363523
 20
140.0362030444613
 30
0.0
 11
1120.002404363523
 21
135.8571036128273
 31
0.0
  0
LINE
  5
7704
330
766B
100
AcDbEntity
  8
标注
  6
Continuous
370
    -2
100
AcDbLine
 10
1088.652468363515
 20
136.1771036128273
 30
0.0
 11
1103.076600756425
 21
136.1771036128273
 31
0.0
  0
LINE
  5
7705
330
766B
100
AcDbEntity
  8
标注
  6
Continuous
370
    -2
100
AcDbLine
 10
1119.352404363523
 20
136.1771036128273
 30
0.0
 11
1104.928271970613
 21
136.1771036128273
 31
0.0
  0
SOLID
  5
7706
330
766B
100
AcDbEntity
  8
标注
100
AcDbTrace
 10
1088.652468363515
 20
136.2854369461606
 30
0.0
 11
1088.652468363515
 21
136.068770279494
 31
0.0
 12
1088.002468363515
 22
136.1771036128273
 32
0.0
 13
1088.002468363515
 23
136.1771036128273
 33
0.0
  0
SOLID
  5
7707
330
766B
100
AcDbEntity
  8
标注
100
AcDbTrace
 10
1119.352404363523
 20
136.2854369461606
 30
0.0
 11
1119.352404363523
 21
136.068770279494
 31
0.0
 12
1120.002404363523
 22
136.1771036128273
 32
0.0
 13
1120.002404363523
 23
136.1771036128273
 33
0.0
  0
MTEXT
  5
7708
330
766B
100
AcDbEntity
  8
标注
100
AcDbMText
 10
1104.002436363519
 20
136.1771036128273
 30
0.0
 40
0.65
 41
0.0
 71
     5
 72
     1
  1
\A1;32"
 73
     1
 44
1.0
1001
ACAD
1000
MTEXTBEGIN
1070
    73
1070
     1
1070
    44
1040
1.0
1070
    74
1070
     0
1000
MTEXTEND
  0
POINT
  5
7709
330
766B
100
AcDbEntity
  8
DEFPOINTS
 62
     0
100
AcDbPoint
 10
1088.002468363515
 20
140.9162030444613
 30
0.0
  0
POINT
  5
770A
330
766B
100
AcDbEntity
  8
DEFPOINTS
 62
     0
100
AcDbPoint
 10
1120.002404363523
 20
140.9162030444613
 30
0.0
  0
POINT
  5
770B
330
766B
100
AcDbEntity
  8
DEFPOINTS
 62
     0
100
AcDbPoint
 10
1120.002404363523
 20
136.1771036128273
 30
0.0
  0
ENDBLK
  5
766D
330
766B
100
AcDbEntity
  8
0
100
AcDbBlockEnd
  0
BLOCK
  5
767A
330
7679
100
AcDbEntity
  8
0
100
AcDbBlockBegin
  2
*D46
 70
     1
 10
0.0
 20
0.0
 30
0.0
  3
*D46
  1

  0
LINE
  5
770C
330
7679
100
AcDbEntity
  8
标注
  6
Continuous
370
    -2
100
AcDbLine
 10
1119.488706363523
 20
141.0686268685727
 30
0.0
 11
1122.431167740042
 21
141.0686268685727
 31
0.0
  0
LINE
  5
770D
330
7679
100
AcDbEntity
  8
标注
  6
Continuous
370
    -2
100
AcDbLine
 10
1119.488706363523
 20
157.0685948685608
 30
0.0
 11
1122.431167740042
 21
157.0685948685608
 31
0.0
  0
LINE
  5
770E
330
7679
100
AcDbEntity
  8
标注
  6
Continuous
370
    -2
100
AcDbLine
 10
1122.111167740041
 20
141.7186268685727
 30
0.0
 11
1122.111167740041
 21
148.1731470213635
 31
0.0
  0
LINE
  5
770F
330
7679
100
AcDbEntity
  8
标注
  6
Continuous
370
    -2
100
AcDbLine
 10
1122.111167740041
 20
156.4185948685608
 30
0.0
 11
1122.111167740041
 21
149.96407471577
 31
0.0
  0
SOLID
  5
7710
330
7679
100
AcDbEntity
  8
标注
100
AcDbTrace
 10
1122.002834406708
 20
141.7186268685727
 30
0.0
 11
1122.219501073375
 21
141.7186268685727
 31
0.0
 12
1122.111167740041
 22
141.0686268685727
 32
0.0
 13
1122.111167740041
 23
141.0686268685727
 33
0.0
  0
SOLID
  5
7711
330
7679
100
AcDbEntity
  8
标注
100
AcDbTrace
 10
1122.002834406708
 20
156.4185948685608
 30
0.0
 11
1122.219501073375
 21
156.4185948685608
 31
0.0
 12
1122.111167740041
 22
157.0685948685608
 32
0.0
 13
1122.111167740041
 23
157.0685948685608
 33
0.0
  0
MTEXT
  5
7712
330
7679
100
AcDbEntity
  8
标注
100
AcDbMText
 10
1122.111167740041
 20
149.0686108685669
 30
0.0
 40
0.65
 41
0.0
 71
     5
 72
     1
  1
\A1;16"
 11
0.0000000000000001
 21
1.0
 31
0.0
 73
     1
 44
1.0
1001
ACAD
1000
MTEXTBEGIN
1070
    73
1070
     1
1070
    44
1040
1.0
1070
    74
1070
     0
1000
MTEXTEND
  0
POINT
  5
7713
330
7679
100
AcDbEntity
  8
DEFPOINTS
 62
     0
100
AcDbPoint
 10
1118.608706363523
 20
141.0686268685727
 30
0.0
  0
POINT
  5
7714
330
7679
100
AcDbEntity
  8
DEFPOINTS
 62
     0
100
AcDbPoint
 10
1118.608706363523
 20
157.0685948685608
 30
0.0
  0
POINT
  5
7715
330
7679
100
AcDbEntity
  8
DEFPOINTS
 62
     0
100
AcDbPoint
 10
1122.111167740041
 20
157.0685948685608
 30
0.0
  0
ENDBLK
  5
767B
330
7679
100
AcDbEntity
  8
0
100
AcDbBlockEnd
  0
BLOCK
  5
7688
330
7687
100
AcDbEntity
  8
0
100
AcDbBlockBegin
  2
*D47
 70
     1
 10
0.0
 20
0.0
 30
0.0
  3
*D47
  1

  0
LINE
  5
7716
330
7687
100
AcDbEntity
  8
标注
  6
Continuous
370
    -2
100
AcDbLine
 10
1119.882406363538
 20
140.0686288685728
 30
0.0
 11
1124.289111218852
 21
140.0686288685728
 31
0.0
  0
LINE
  5
7717
330
7687
100
AcDbEntity
  8
标注
  6
Continuous
370
    -2
100
AcDbLine
 10
1119.882406363538
 20
158.0685928685606
 30
0.0
 11
1124.289111218852
 21
158.0685928685606
 31
0.0
  0
LINE
  5
7718
330
7687
100
AcDbEntity
  8
标注
  6
Continuous
370
    -2
100
AcDbLine
 10
1123.969111218852
 20
140.7186288685728
 30
0.0
 11
1123.969111218852
 21
148.1731470213635
 31
0.0
  0
LINE
  5
7719
330
7687
100
AcDbEntity
  8
标注
  6
Continuous
370
    -2
100
AcDbLine
 10
1123.969111218852
 20
157.4185928685606
 30
0.0
 11
1123.969111218852
 21
149.96407471577
 31
0.0
  0
SOLID
  5
771A
330
7687
100
AcDbEntity
  8
标注
100
AcDbTrace
 10
1123.860777885519
 20
140.7186288685728
 30
0.0
 11
1124.077444552186
 21
140.7186288685728
 31
0.0
 12
1123.969111218852
 22
140.0686288685728
 32
0.0
 13
1123.969111218852
 23
140.0686288685728
 33
0.0
  0
SOLID
  5
771B
330
7687
100
AcDbEntity
  8
标注
100
AcDbTrace
 10
1123.860777885519
 20
157.4185928685606
 30
0.0
 11
1124.077444552186
 21
157.4185928685606
 31
0.0
 12
1123.969111218852
 22
158.0685928685606
 32
0.0
 13
1123.969111218852
 23
158.0685928685606
 33
0.0
  0
MTEXT
  5
771C
330
7687
100
AcDbEntity
  8
标注
100
AcDbMText
 10
1123.969111218852
 20
149.0686108685669
 30
0.0
 40
0.65
 41
0.0
 71
     5
 72
     1
  1
\A1;18"
 11
0.0000000000000001
 21
1.0
 31
0.0
 73
     1
 44
1.0
1001
ACAD
1000
MTEXTBEGIN
1070
    73
1070
     1
1070
    44
1040
1.0
1070
    74
1070
     0
1000
MTEXTEND
  0
POINT
  5
771D
330
7687
100
AcDbEntity
  8
DEFPOINTS
 62
     0
100
AcDbPoint
 10
1119.002406363538
 20
140.0686288685728
 30
0.0
  0
POINT
  5
771E
330
7687
100
AcDbEntity
  8
DEFPOINTS
 62
     0
100
AcDbPoint
 10
1119.002406363538
 20
158.0685928685606
 30
0.0
  0
POINT
  5
771F
330
7687
100
AcDbEntity
  8
DEFPOINTS
 62
     0
100
AcDbPoint
 10
1123.969111218852
 20
158.0685928685606
 30
0.0
  0
ENDBLK
  5
7689
330
7687
100
AcDbEntity
  8
0
100
AcDbBlockEnd
  0
BLOCK
  5
7696
330
7695
100
AcDbEntity
  8
0
100
AcDbBlockBegin
  2
*D48
 70
     1
 10
0.0
 20
0.0
 30
0.0
  3
*D48
  1

  0
LINE
  5
7720
330
7695
100
AcDbEntity
  8
标注
  6
Continuous
370
    -2
100
AcDbLine
 10
1088.923726363532
 20
109.9332343613442
 30
0.0
 11
1088.923726363532
 21
107.2728605476784
 31
0.0
  0
LINE
  5
7721
330
7695
100
AcDbEntity
  8
标注
  6
Continuous
370
    -2
100
AcDbLine
 10
1119.081146363535
 20
109.9332343613442
 30
0.0
 11
1119.081146363535
 21
107.2728605476784
 31
0.0
  0
LINE
  5
7722
330
7695
100
AcDbEntity
  8
标注
  6
Continuous
370
    -2
100
AcDbLine
 10
1089.573726363532
 20
107.5928605476784
 30
0.0
 11
1102.31930198427
 21
107.5928605476784
 31
0.0
  0
LINE
  5
7723
330
7695
100
AcDbEntity
  8
标注
  6
Continuous
370
    -2
100
AcDbLine
 10
1118.431146363535
 20
107.5928605476784
 30
0.0
 11
1105.685570742797
 21
107.5928605476784
 31
0.0
  0
SOLID
  5
7724
330
7695
100
AcDbEntity
  8
标注
100
AcDbTrace
 10
1089.573726363532
 20
107.7011938810117
 30
0.0
 11
1089.573726363532
 21
107.484527214345
 31
0.0
 12
1088.923726363532
 22
107.5928605476784
 32
0.0
 13
1088.923726363532
 23
107.5928605476784
 33
0.0
  0
SOLID
  5
7725
330
7695
100
AcDbEntity
  8
标注
100
AcDbTrace
 10
1118.431146363535
 20
107.7011938810117
 30
0.0
 11
1118.431146363535
 21
107.484527214345
 31
0.0
 12
1119.081146363535
 22
107.5928605476784
 32
0.0
 13
1119.081146363535
 23
107.5928605476784
 33
0.0
  0
MTEXT
  5
7726
330
7695
100
AcDbEntity
  8
标注
100
AcDbMText
 10
1104.002436363534
 20
107.5928605476784
 30
0.0
 40
0.65
 41
0.0
 71
     5
 72
     1
  1
\A1;30 1/8"
 73
     1
 44
1.0
1001
ACAD
1000
MTEXTBEGIN
1070
    73
1070
     1
1070
    44
1040
1.0
1070
    74
1070
     0
1000
MTEXTEND
  0
POINT
  5
7727
330
7695
100
AcDbEntity
  8
DEFPOINTS
 62
     0
100
AcDbPoint
 10
1088.923726363532
 20
110.8132343613442
 30
0.0
  0
POINT
  5
7728
330
7695
100
AcDbEntity
  8
DEFPOINTS
 62
     0
100
AcDbPoint
 10
1119.081146363535
 20
110.8132343613442
 30
0.0
  0
POINT
  5
7729
330
7695
100
AcDbEntity
  8
DEFPOINTS
 62
     0
100
AcDbPoint
 10
1119.081146363535
 20
107.5928605476784
 30
0.0
  0
ENDBLK
  5
7697
330
7695
100
AcDbEntity
  8
0
100
AcDbBlockEnd
  0
BLOCK
  5
76A4
330
76A3
100
AcDbEntity
  8
0
100
AcDbBlockBegin
  2
*D49
 70
     1
 10
0.0
 20
0.0
 30
0.0
  3
*D49
  1

  0
LINE
  5
772A
330
76A3
100
AcDbEntity
  8
标注
  6
Continuous
370
    -2
100
AcDbLine
 10
1119.488706363523
 20
110.340794361361
 30
0.0
 11
1121.626027781037
 21
110.340794361361
 31
0.0
  0
LINE
  5
772B
330
76A3
100
AcDbEntity
  8
标注
  6
Continuous
370
    -2
100
AcDbLine
 10
1119.488706363523
 20
126.4982423613614
 30
0.0
 11
1121.626027781037
 21
126.4982423613614
 31
0.0
  0
LINE
  5
772C
330
76A3
100
AcDbEntity
  8
标注
  6
Continuous
370
    -2
100
AcDbLine
 10
1121.306027781037
 20
110.990794361361
 30
0.0
 11
1121.306027781037
 21
116.7667557419888
 31
0.0
  0
LINE
  5
772D
330
76A3
100
AcDbEntity
  8
标注
  6
Continuous
370
    -2
100
AcDbLine
 10
1121.306027781037
 20
125.8482423613614
 30
0.0
 11
1121.306027781037
 21
120.0722809807336
 31
0.0
  0
SOLID
  5
772E
330
76A3
100
AcDbEntity
  8
标注
100
AcDbTrace
 10
1121.197694447704
 20
110.990794361361
 30
0.0
 11
1121.41436111437
 21
110.990794361361
 31
0.0
 12
1121.306027781037
 22
110.340794361361
 32
0.0
 13
1121.306027781037
 23
110.340794361361
 33
0.0
  0
SOLID
  5
772F
330
76A3
100
AcDbEntity
  8
标注
100
AcDbTrace
 10
1121.197694447704
 20
125.8482423613614
 30
0.0
 11
1121.41436111437
 21
125.8482423613614
 31
0.0
 12
1121.306027781037
 22
126.4982423613614
 32
0.0
 13
1121.306027781037
 23
126.4982423613614
 33
0.0
  0
MTEXT
  5
7730
330
76A3
100
AcDbEntity
  8
标注
100
AcDbMText
 10
1121.306027781037
 20
118.4195183613614
 30
0.0
 40
0.65
 41
0.0
 71
     5
 72
     1
  1
\A1;16 1/8"
 11
0.0000000000000001
 21
1.0
 31
0.0
 73
     1
 44
1.0
1001
ACAD
1000
MTEXTBEGIN
1070
    73
1070
     1
1070
    44
1040
1.0
1070
    74
1070
     0
1000
MTEXTEND
  0
POINT
  5
7731
330
76A3
100
AcDbEntity
  8
DEFPOINTS
 62
     0
100
AcDbPoint
 10
1118.608706363523
 20
110.340794361361
 30
0.0
  0
POINT
  5
7732
330
76A3
100
AcDbEntity
  8
DEFPOINTS
 62
     0
100
AcDbPoint
 10
1118.608706363523
 20
126.4982423613614
 30
0.0
  0
POINT
  5
7733
330
76A3
100
AcDbEntity
  8
DEFPOINTS
 62
     0
100
AcDbPoint
 10
1121.306027781037
 20
126.4982423613614
 30
0.0
  0
ENDBLK
  5
76A5
330
76A3
100
AcDbEntity
  8
0
100
AcDbBlockEnd
  0
BLOCK
  5
76CA
330
76C9
100
AcDbEntity
  8
0
100
AcDbBlockBegin
  2
*D50
 70
     1
 10
0.0
 20
0.0
 30
0.0
  3
*D50
  1

  0
LINE
  5
7734
330
76C9
100
AcDbEntity
  8
标注
  6
Continuous
370
    -2
100
AcDbLine
 10
1120.882404363523
 20
176.8214766457615
 30
0.0
 11
1122.281853891465
 21
176.8214766457615
 31
0.0
  0
LINE
  5
7735
330
76C9
100
AcDbEntity
  8
标注
  6
Continuous
370
    -2
100
AcDbLine
 10
1120.882404363523
 20
168.8214766457616
 30
0.0
 11
1122.281853891465
 21
168.8214766457616
 31
0.0
  0
LINE
  5
7736
330
76C9
100
AcDbEntity
  8
标注
  6
Continuous
370
    -2
100
AcDbLine
 10
1121.961853891465
 20
176.1714766457616
 30
0.0
 11
1121.961853891465
 21
173.4954705066074
 31
0.0
  0
LINE
  5
7737
330
76C9
100
AcDbEntity
  8
标注
  6
Continuous
370
    -2
100
AcDbLine
 10
1121.961853891465
 20
169.4714766457616
 30
0.0
 11
1121.961853891465
 21
172.1474827849157
 31
0.0
  0
SOLID
  5
7738
330
76C9
100
AcDbEntity
  8
标注
100
AcDbTrace
 10
1121.853520558132
 20
176.1714766457616
 30
0.0
 11
1122.070187224799
 21
176.1714766457616
 31
0.0
 12
1121.961853891465
 22
176.8214766457615
 32
0.0
 13
1121.961853891465
 23
176.8214766457615
 33
0.0
  0
SOLID
  5
7739
330
76C9
100
AcDbEntity
  8
标注
100
AcDbTrace
 10
1121.853520558132
 20
169.4714766457616
 30
0.0
 11
1122.070187224799
 21
169.4714766457616
 31
0.0
 12
1121.961853891465
 22
168.8214766457616
 32
0.0
 13
1121.961853891465
 23
168.8214766457616
 33
0.0
  0
MTEXT
  5
773A
330
76C9
100
AcDbEntity
  8
标注
100
AcDbMText
 10
1121.961853891465
 20
172.8214766457617
 30
0.0
 40
0.65
 41
0.0
 71
     5
 72
     1
  1
\A1;8"
 11
0.0000000000000001
 21
1.0
 31
0.0
 73
     1
 44
1.0
1001
ACAD
1000
MTEXTBEGIN
1070
    73
1070
     1
1070
    44
1040
1.0
1070
    74
1070
     0
1000
MTEXTEND
  0
POINT
  5
773B
330
76C9
100
AcDbEntity
  8
DEFPOINTS
 62
     0
100
AcDbPoint
 10
1120.002404363523
 20
176.8214766457615
 30
0.0
  0
POINT
  5
773C
330
76C9
100
AcDbEntity
  8
DEFPOINTS
 62
     0
100
AcDbPoint
 10
1120.002404363523
 20
168.8214766457616
 30
0.0
  0
POINT
  5
773D
330
76C9
100
AcDbEntity
  8
DEFPOINTS
 62
     0
100
AcDbPoint
 10
1121.961853891465
 20
168.8214766457616
 30
0.0
  0
ENDBLK
  5
76CB
330
76C9
100
AcDbEntity
  8
0
100
AcDbBlockEnd
  0
BLOCK
  5
76D8
330
76D7
100
AcDbEntity
  8
0
100
AcDbBlockBegin
  2
*D51
 70
     1
 10
0.0
 20
0.0
 30
0.0
  3
*D51
  1

  0
LINE
  5
773E
330
76D7
100
AcDbEntity
  8
标注
  6
Continuous
370
    -2
100
AcDbLine
 10
1087.122468363515
 20
176.8214766457616
 30
0.0
 11
1085.734540189627
 21
176.8214766457616
 31
0.0
  0
LINE
  5
773F
330
76D7
100
AcDbEntity
  8
标注
  6
Continuous
370
    -2
100
AcDbLine
 10
1087.122468363515
 20
167.8214766457616
 30
0.0
 11
1085.734540189627
 21
167.8214766457616
 31
0.0
  0
LINE
  5
7740
330
76D7
100
AcDbEntity
  8
标注
  6
Continuous
370
    -2
100
AcDbLine
 10
1086.054540189627
 20
176.1714766457616
 30
0.0
 11
1086.054540189627
 21
172.9950271232513
 31
0.0
  0
LINE
  5
7741
330
76D7
100
AcDbEntity
  8
标注
  6
Continuous
370
    -2
100
AcDbLine
 10
1086.054540189627
 20
168.4714766457616
 30
0.0
 11
1086.054540189627
 21
171.6479261682718
 31
0.0
  0
SOLID
  5
7742
330
76D7
100
AcDbEntity
  8
标注
100
AcDbTrace
 10
1085.946206856294
 20
176.1714766457616
 30
0.0
 11
1086.16287352296
 21
176.1714766457616
 31
0.0
 12
1086.054540189627
 22
176.8214766457616
 32
0.0
 13
1086.054540189627
 23
176.8214766457616
 33
0.0
  0
SOLID
  5
7743
330
76D7
100
AcDbEntity
  8
标注
100
AcDbTrace
 10
1085.946206856294
 20
168.4714766457616
 30
0.0
 11
1086.16287352296
 21
168.4714766457616
 31
0.0
 12
1086.054540189627
 22
167.8214766457616
 32
0.0
 13
1086.054540189627
 23
167.8214766457616
 33
0.0
  0
MTEXT
  5
7744
330
76D7
100
AcDbEntity
  8
标注
100
AcDbMText
 10
1086.054540189627
 20
172.3214766457618
 30
0.0
 40
0.65
 41
0.0
 71
     5
 72
     1
  1
\A1;9"
 11
0.0000000000000001
 21
1.0
 31
0.0
 73
     1
 44
1.0
1001
ACAD
1000
MTEXTBEGIN
1070
    73
1070
     1
1070
    44
1040
1.0
1070
    74
1070
     0
1000
MTEXTEND
  0
POINT
  5
7745
330
76D7
100
AcDbEntity
  8
DEFPOINTS
 62
     0
100
AcDbPoint
 10
1088.002468363515
 20
176.8214766457615
 30
0.0
  0
POINT
  5
7746
330
76D7
100
AcDbEntity
  8
DEFPOINTS
 62
     0
100
AcDbPoint
 10
1088.002468363515
 20
167.8214766457616
 30
0.0
  0
POINT
  5
7747
330
76D7
100
AcDbEntity
  8
DEFPOINTS
 62
     0
100
AcDbPoint
 10
1086.054540189627
 20
167.8214766457616
 30
0.0
  0
ENDBLK
  5
76D9
330
76D7
100
AcDbEntity
  8
0
100
AcDbBlockEnd
  0
BLOCK
  5
76E6
330
76E5
100
AcDbEntity
  8
0
100
AcDbBlockBegin
  2
*D52
 70
     1
 10
0.0
 20
0.0
 30
0.0
  3
*D52
  1

  0
LINE
  5
7748
330
76E5
100
AcDbEntity
  8
标注
  6
Continuous
370
    -2
100
AcDbLine
 10
1088.765748733982
 20
109.8845551024104
 30
0.0
 11
1088.400676695213
 21
109.3467610837484
 31
0.0
  0
MTEXT
  5
7749
330
76E5
100
AcDbEntity
  8
标注
100
AcDbMText
 10
1089.809945962861
 20
111.9147757660897
 30
0.0
 40
0.65
 41
0.0
 71
     5
 72
     1
  1
\A1;R1/2"
 11
0.5616492904145967
 21
0.8273754133262482
 31
0.0
 73
     1
 44
1.0
1001
ACAD
1000
MTEXTBEGIN
1070
    73
1070
     1
1070
    44
1040
1.0
1070
    74
1070
     0
1000
MTEXTEND
  0
LINE
  5
774A
330
76E5
100
AcDbEntity
  8
标注
  6
Continuous
370
    -2
100
AcDbLine
 10
1089.396166363515
 20
110.8132343613443
 30
0.0
 11
1089.130820772751
 21
110.4223491210725
 31
0.0
  0
SOLID
  5
774B
330
76E5
100
AcDbEntity
  8
标注
100
AcDbTrace
 10
1088.676116397538
 20
109.9454004422053
 30
0.0
 11
1088.855381070426
 21
109.8237097626155
 31
0.0
 12
1089.130820772751
 22
110.4223491210725
 32
0.0
 13
1089.130820772751
 23
110.4223491210725
 33
0.0
  0
POINT
  5
774C
330
76E5
100
AcDbEntity
  8
DEFPOINTS
 62
     0
100
AcDbPoint
 10
1089.130820772751
 20
110.4223491210725
 30
0.0
  0
POINT
  5
774D
330
76E5
100
AcDbEntity
  8
DEFPOINTS
 62
     0
100
AcDbPoint
 10
1089.396166363515
 20
110.8132343613443
 30
0.0
  0
ENDBLK
  5
76E7
330
76E5
100
AcDbEntity
  8
0
100
AcDbBlockEnd
  0
BLOCK
  5
7750
330
774F
100
AcDbEntity
  8
0
100
AcDbBlockBegin
  2
*D53
 70
     1
 10
0.0
 20
0.0
 30
0.0
  3
*D53
  1

  0
LINE
  5
7752
330
774F
100
AcDbEntity
  8
标注
  6
Continuous
370
    -2
100
AcDbLine
 10
1088.625848595288
 20
140.7581108321508
 30
0.0
 11
1088.146106763969
 21
140.3195361232553
 31
0.0
  0
MTEXT
  5
7753
330
774F
100
AcDbEntity
  8
标注
100
AcDbMText
 10
1090.016460788999
 20
142.5306366223589
 30
0.0
 40
0.65
 41
0.0
 71
     5
 72
     1
  1
\A1;R3/8"
 11
0.7380643558751542
 21
0.6747303213778033
 31
0.0
 73
     1
 44
1.0
1001
ACAD
1000
MTEXTBEGIN
1070
    73
1070
     1
1070
    44
1040
1.0
1070
    74
1070
     0
1000
MTEXTEND
  0
LINE
  5
7754
330
774F
100
AcDbEntity
  8
标注
  6
Continuous
370
    -2
100
AcDbLine
 10
1089.396166363515
 20
141.4623268685729
 30
0.0
 11
1089.105590426607
 21
141.1966855410464
 31
0.0
  0
SOLID
  5
7755
330
774F
100
AcDbEntity
  8
标注
100
AcDbTrace
 10
1088.552752810472
 20
140.8380678040373
 30
0.0
 11
1088.698944380104
 21
140.6781538602643
 31
0.0
 12
1089.105590426607
 22
141.1966855410464
 32
0.0
 13
1089.105590426607
 23
141.1966855410464
 33
0.0
  0
POINT
  5
7756
330
774F
100
AcDbEntity
  8
DEFPOINTS
 62
     0
100
AcDbPoint
 10
1089.105590426607
 20
141.1966855410464
 30
0.0
  0
POINT
  5
7757
330
774F
100
AcDbEntity
  8
DEFPOINTS
 62
     0
100
AcDbPoint
 10
1089.396166363515
 20
141.4623268685729
 30
0.0
  0
ENDBLK
  5
7751
330
774F
100
AcDbEntity
  8
0
100
AcDbBlockEnd
  0
BLOCK
  5
775A
330
7759
100
AcDbEntity
  8
0
100
AcDbBlockBegin
  2
*D54
 70
     1
 10
0.0
 20
0.0
 30
0.0
  3
*D54
  1

  0
LINE
  5
775C
330
7759
100
AcDbEntity
  8
标注
  6
Continuous
370
    -2
100
AcDbLine
 10
1088.781566144207
 20
167.437261592806
 30
0.0
 11
1088.398802761482
 21
166.9119120017289
 31
0.0
  0
MTEXT
  5
775D
330
7759
100
AcDbEntity
  8
标注
100
AcDbMText
 10
1089.903052705533
 20
169.3984104150958
 30
0.0
 40
0.65
 41
0.0
 71
     5
 72
     1
  1
\A1;R3/8"
 11
0.5888667426537983
 21
0.8082301401187073
 31
0.0
 73
     1
 44
1.0
1001
ACAD
1000
MTEXTBEGIN
1070
    73
1070
     1
1070
    44
1040
1.0
1070
    74
1070
     0
1000
MTEXTEND
  0
LINE
  5
775E
330
7759
100
AcDbEntity
  8
标注
  6
Continuous
370
    -2
100
AcDbLine
 10
1089.396166363514
 20
168.2808113900474
 30
0.0
 11
1089.164329526932
 21
167.9626111838831
 31
0.0
  0
SOLID
  5
775F
330
7759
100
AcDbEntity
  8
标注
100
AcDbTrace
 10
1088.694007879027
 20
167.5010554899269
 30
0.0
 11
1088.869124409386
 21
167.3734676956852
 31
0.0
 12
1089.164329526932
 22
167.9626111838831
 32
0.0
 13
1089.164329526932
 23
167.9626111838831
 33
0.0
  0
POINT
  5
7760
330
7759
100
AcDbEntity
  8
DEFPOINTS
 62
     0
100
AcDbPoint
 10
1089.164329526932
 20
167.9626111838831
 30
0.0
  0
POINT
  5
7761
330
7759
100
AcDbEntity
  8
DEFPOINTS
 62
     0
100
AcDbPoint
 10
1089.396166363514
 20
168.2808113900474
 30
0.0
  0
ENDBLK
  5
775B
330
7759
100
AcDbEntity
  8
0
100
AcDbBlockEnd
  0
BLOCK
  5
7764
330
7763
100
AcDbEntity
  8
0
100
AcDbBlockBegin
  2
*D55
 70
     1
 10
0.0
 20
0.0
 30
0.0
  3
*D55
  1

  0
LINE
  5
7766
330
7763
100
AcDbEntity
  8
标注
  6
Continuous
370
    -2
100
AcDbLine
 10
1108.854370253331
 20
168.4056477929943
 30
0.0
 11
1108.516973039927
 21
167.850073207194
 31
0.0
  0
MTEXT
  5
7767
330
7763
100
AcDbEntity
  8
标注
100
AcDbMText
 10
1109.911200867928
 20
170.4930410942527
 30
0.0
 40
0.65
 41
0.0
 71
     5
 72
     1
  1
\A1;R3/8"
 11
0.5190726360061986
 21
0.8547301320004908
 31
0.0
 73
     1
 44
1.0
1001
ACAD
1000
MTEXTBEGIN
1070
    73
1070
     1
1070
    44
1040
1.0
1070
    74
1070
     0
1000
MTEXTEND
  0
LINE
  5
7768
330
7763
100
AcDbEntity
  8
标注
  6
Continuous
370
    -2
100
AcDbLine
 10
1109.396126363531
 20
169.2977296317631
 30
0.0
 11
1109.191767466735
 21
168.9612223787946
 31
0.0
  0
SOLID
  5
7769
330
7763
100
AcDbEntity
  8
标注
100
AcDbTrace
 10
1108.761774489031
 20
168.461880661895
 30
0.0
 11
1108.946966017631
 21
168.3494149240936
 31
0.0
 12
1109.191767466735
 22
168.9612223787946
 32
0.0
 13
1109.191767466735
 23
168.9612223787946
 33
0.0
  0
POINT
  5
776A
330
7763
100
AcDbEntity
  8
DEFPOINTS
 62
     0
100
AcDbPoint
 10
1109.191767466735
 20
168.9612223787946
 30
0.0
  0
POINT
  5
776B
330
7763
100
AcDbEntity
  8
DEFPOINTS
 62
     0
100
AcDbPoint
 10
1109.396126363531
 20
169.2977296317631
 30
0.0
  0
ENDBLK
  5
7765
330
7763
100
AcDbEntity
  8
0
100
AcDbBlockEnd
  0
BLOCK
  5
784D
330
784C
100
AcDbEntity
  8
0
100
AcDbBlockBegin
  2
*D56
 70
     1
 10
0.0
 20
0.0
 30
0.0
  3
*D56
  1

  0
LINE
  5
78E5
330
784C
100
AcDbEntity
  8
标注
  6
Continuous
370
    -2
100
AcDbLine
 10
1171.567706398165
 20
140.7581108321507
 30
0.0
 11
1172.047448229484
 21
140.3195361232548
 31
0.0
  0
MTEXT
  5
78E6
330
784C
100
AcDbEntity
  8
标注
100
AcDbMText
 10
1170.177094204455
 20
142.5306366223589
 30
0.0
 40
0.65
 41
0.0
 71
     5
 72
     1
  1
\A1;R3/8"
 11
0.7380643558748194
 21
-0.6747303213781698
 31
0.0
 73
     1
 44
1.0
1001
ACAD
1000
MTEXTBEGIN
1070
    73
1070
     1
1070
    44
1040
1.0
1070
    74
1070
     0
1000
MTEXTEND
  0
LINE
  5
78E7
330
784C
100
AcDbEntity
  8
标注
  6
Continuous
370
    -2
100
AcDbLine
 10
1170.797388629938
 20
141.4623268685728
 30
0.0
 11
1171.087964566846
 21
141.1966855410464
 31
0.0
  0
SOLID
  5
78E8
330
784C
100
AcDbEntity
  8
标注
100
AcDbTrace
 10
1171.640802182981
 20
140.8380678040372
 30
0.0
 11
1171.494610613349
 21
140.6781538602642
 31
0.0
 12
1171.087964566846
 22
141.1966855410464
 32
0.0
 13
1171.087964566846
 23
141.1966855410464
 33
0.0
  0
ARC
  5
78E9
330
784C
100
AcDbEntity
  8
标注
  6
Continuous
370
    -2
100
AcDbCircle
 10
1170.797388629938
 20
141.4623268685728
 30
0.0
 40
0.3936999999997397
100
AcDbArc
 50
270.0
 51
4.136891116460779
  0
POINT
  5
78EA
330
784C
100
AcDbEntity
  8
DEFPOINTS
 62
     0
100
AcDbPoint
 10
1171.087964566846
 20
141.1966855410464
 30
0.0
  0
POINT
  5
78EB
330
784C
100
AcDbEntity
  8
DEFPOINTS
 62
     0
100
AcDbPoint
 10
1170.797388629938
 20
141.4623268685728
 30
0.0
  0
ENDBLK
  5
784E
330
784C
100
AcDbEntity
  8
0
100
AcDbBlockEnd
  0
BLOCK
  5
7856
330
7855
100
AcDbEntity
  8
0
100
AcDbBlockBegin
  2
*D57
 70
     1
 10
0.0
 20
0.0
 30
0.0
  3
*D57
  1

  0
LINE
  5
78EC
330
7855
100
AcDbEntity
  8
标注
  6
Continuous
370
    -2
100
AcDbLine
 10
1171.411988849246
 20
167.4372615928058
 30
0.0
 11
1171.794752231971
 21
166.9119120017286
 31
0.0
  0
MTEXT
  5
78ED
330
7855
100
AcDbEntity
  8
标注
100
AcDbMText
 10
1170.29050228792
 20
169.3984104150957
 30
0.0
 40
0.65
 41
0.0
 71
     5
 72
     1
  1
\A1;R3/8"
 11
0.58886674265349
 21
-0.8082301401189322
 31
0.0
 73
     1
 44
1.0
1001
ACAD
1000
MTEXTBEGIN
1070
    73
1070
     1
1070
    44
1040
1.0
1070
    74
1070
     0
1000
MTEXTEND
  0
LINE
  5
78EE
330
7855
100
AcDbEntity
  8
标注
  6
Continuous
370
    -2
100
AcDbLine
 10
1170.797388629939
 20
168.2808113900473
 30
0.0
 11
1171.029225466521
 21
167.9626111838832
 31
0.0
  0
SOLID
  5
78EF
330
7855
100
AcDbEntity
  8
标注
100
AcDbTrace
 10
1171.499547114426
 20
167.5010554899268
 30
0.0
 11
1171.324430584067
 21
167.3734676956852
 31
0.0
 12
1171.029225466521
 22
167.9626111838832
 32
0.0
 13
1171.029225466521
 23
167.9626111838832
 33
0.0
  0
ARC
  5
78F0
330
7855
100
AcDbEntity
  8
标注
  6
Continuous
370
    -2
100
AcDbCircle
 10
1170.797388629939
 20
168.2808113900473
 30
0.0
 40
0.3936999999991713
100
AcDbArc
 50
268.9448516038491
 51
352.6467327286764
  0
POINT
  5
78F1
330
7855
100
AcDbEntity
  8
DEFPOINTS
 62
     0
100
AcDbPoint
 10
1171.029225466521
 20
167.9626111838832
 30
0.0
  0
POINT
  5
78F2
330
7855
100
AcDbEntity
  8
DEFPOINTS
 62
     0
100
AcDbPoint
 10
1170.797388629939
 20
168.2808113900473
 30
0.0
  0
ENDBLK
  5
7857
330
7855
100
AcDbEntity
  8
0
100
AcDbBlockEnd
  0
BLOCK
  5
785F
330
785E
100
AcDbEntity
  8
0
100
AcDbBlockBegin
  2
*D58
 70
     1
 10
0.0
 20
0.0
 30
0.0
  3
*D58
  1

  0
LINE
  5
78F3
330
785E
100
AcDbEntity
  8
标注
  6
Continuous
370
    -2
100
AcDbLine
 10
1151.339184740122
 20
168.4056477929943
 30
0.0
 11
1151.676581953527
 21
167.850073207194
 31
0.0
  0
MTEXT
  5
78F4
330
785E
100
AcDbEntity
  8
标注
100
AcDbMText
 10
1150.282354125525
 20
170.4930410942527
 30
0.0
 40
0.65
 41
0.0
 71
     5
 72
     1
  1
\A1;R3/8"
 11
0.5190726360061991
 21
-0.8547301320004907
 31
0.0
 73
     1
 44
1.0
1001
ACAD
1000
MTEXTBEGIN
1070
    73
1070
     1
1070
    44
1040
1.0
1070
    74
1070
     0
1000
MTEXTEND
  0
LINE
  5
78F5
330
785E
100
AcDbEntity
  8
标注
  6
Continuous
370
    -2
100
AcDbLine
 10
1150.797428629923
 20
169.2977296317631
 30
0.0
 11
1151.001787526718
 21
168.9612223787946
 31
0.0
  0
SOLID
  5
78F6
330
785E
100
AcDbEntity
  8
标注
100
AcDbTrace
 10
1151.431780504422
 20
168.461880661895
 30
0.0
 11
1151.246588975822
 21
168.3494149240936
 31
0.0
 12
1151.001787526718
 22
168.9612223787946
 32
0.0
 13
1151.001787526718
 23
168.9612223787946
 33
0.0
  0
ARC
  5
78F7
330
785E
100
AcDbEntity
  8
标注
  6
Continuous
370
    -2
100
AcDbCircle
 10
1150.797428629923
 20
169.2977296317631
 30
0.0
 40
0.3936999999999671
100
AcDbArc
 50
266.4256288702042
 51
347.8401690193209
  0
POINT
  5
78F8
330
785E
100
AcDbEntity
  8
DEFPOINTS
 62
     0
100
AcDbPoint
 10
1151.001787526718
 20
168.9612223787946
 30
0.0
  0
POINT
  5
78F9
330
785E
100
AcDbEntity
  8
DEFPOINTS
 62
     0
100
AcDbPoint
 10
1150.797428629923
 20
169.2977296317631
 30
0.0
  0
ENDBLK
  5
7860
330
785E
100
AcDbEntity
  8
0
100
AcDbBlockEnd
  0
BLOCK
  5
7868
330
7867
100
AcDbEntity
  8
0
100
AcDbBlockBegin
  2
*D59
 70
     1
 10
0.0
 20
0.0
 30
0.0
  3
*D59
  1

  0
LINE
  5
78FA
330
7867
100
AcDbEntity
  8
标注
  6
Continuous
370
    -2
100
AcDbLine
 10
1140.70484862993
 20
141.0686268685727
 30
0.0
 11
1137.762387253412
 21
141.0686268685727
 31
0.0
  0
LINE
  5
78FB
330
7867
100
AcDbEntity
  8
标注
  6
Continuous
370
    -2
100
AcDbLine
 10
1140.70484862993
 20
157.0685948685608
 30
0.0
 11
1137.762387253412
 21
157.0685948685608
 31
0.0
  0
LINE
  5
78FC
330
7867
100
AcDbEntity
  8
标注
  6
Continuous
370
    -2
100
AcDbLine
 10
1138.082387253412
 20
141.7186268685727
 30
0.0
 11
1138.082387253412
 21
148.1731470213635
 31
0.0
  0
LINE
  5
78FD
330
7867
100
AcDbEntity
  8
标注
  6
Continuous
370
    -2
100
AcDbLine
 10
1138.082387253412
 20
156.4185948685608
 30
0.0
 11
1138.082387253412
 21
149.96407471577
 31
0.0
  0
SOLID
  5
78FE
330
7867
100
AcDbEntity
  8
标注
100
AcDbTrace
 10
1137.974053920078
 20
141.7186268685727
 30
0.0
 11
1138.190720586745
 21
141.7186268685727
 31
0.0
 12
1138.082387253412
 22
141.0686268685727
 32
0.0
 13
1138.082387253412
 23
141.0686268685727
 33
0.0
  0
SOLID
  5
78FF
330
7867
100
AcDbEntity
  8
标注
100
AcDbTrace
 10
1137.974053920078
 20
156.4185948685608
 30
0.0
 11
1138.190720586745
 21
156.4185948685608
 31
0.0
 12
1138.082387253412
 22
157.0685948685608
 32
0.0
 13
1138.082387253412
 23
157.0685948685608
 33
0.0
  0
MTEXT
  5
7900
330
7867
100
AcDbEntity
  8
标注
100
AcDbMText
 10
1138.082387253412
 20
149.0686108685669
 30
0.0
 40
0.65
 41
0.0
 71
     5
 72
     1
  1
\A1;16"
 11
0.0000000000000001
 21
1.0
 31
0.0
 73
     1
 44
1.0
1001
ACAD
1000
MTEXTBEGIN
1070
    73
1070
     1
1070
    44
1040
1.0
1070
    74
1070
     0
1000
MTEXTEND
  0
POINT
  5
7901
330
7867
100
AcDbEntity
  8
DEFPOINTS
 62
     0
100
AcDbPoint
 10
1141.584848629931
 20
141.0686268685727
 30
0.0
  0
POINT
  5
7902
330
7867
100
AcDbEntity
  8
DEFPOINTS
 62
     0
100
AcDbPoint
 10
1141.584848629931
 20
157.0685948685608
 30
0.0
  0
POINT
  5
7903
330
7867
100
AcDbEntity
  8
DEFPOINTS
 62
     0
100
AcDbPoint
 10
1138.082387253412
 20
157.0685948685608
 30
0.0
  0
ENDBLK
  5
7869
330
7867
100
AcDbEntity
  8
0
100
AcDbBlockEnd
  0
BLOCK
  5
7875
330
7874
100
AcDbEntity
  8
0
100
AcDbBlockBegin
  2
*D60
 70
     1
 10
0.0
 20
0.0
 30
0.0
  3
*D60
  1

  0
LINE
  5
7904
330
7874
100
AcDbEntity
  8
标注
  6
Continuous
370
    -2
100
AcDbLine
 10
1140.311148629915
 20
140.0686288685728
 30
0.0
 11
1135.904443774601
 21
140.0686288685728
 31
0.0
  0
LINE
  5
7905
330
7874
100
AcDbEntity
  8
标注
  6
Continuous
370
    -2
100
AcDbLine
 10
1140.311148629915
 20
158.0685928685606
 30
0.0
 11
1135.904443774601
 21
158.0685928685606
 31
0.0
  0
LINE
  5
7906
330
7874
100
AcDbEntity
  8
标注
  6
Continuous
370
    -2
100
AcDbLine
 10
1136.224443774601
 20
140.7186288685728
 30
0.0
 11
1136.224443774601
 21
148.1731470213635
 31
0.0
  0
LINE
  5
7907
330
7874
100
AcDbEntity
  8
标注
  6
Continuous
370
    -2
100
AcDbLine
 10
1136.224443774601
 20
157.4185928685606
 30
0.0
 11
1136.224443774601
 21
149.96407471577
 31
0.0
  0
SOLID
  5
7908
330
7874
100
AcDbEntity
  8
标注
100
AcDbTrace
 10
1136.116110441268
 20
140.7186288685728
 30
0.0
 11
1136.332777107934
 21
140.7186288685728
 31
0.0
 12
1136.224443774601
 22
140.0686288685728
 32
0.0
 13
1136.224443774601
 23
140.0686288685728
 33
0.0
  0
SOLID
  5
7909
330
7874
100
AcDbEntity
  8
标注
100
AcDbTrace
 10
1136.116110441268
 20
157.4185928685606
 30
0.0
 11
1136.332777107934
 21
157.4185928685606
 31
0.0
 12
1136.224443774601
 22
158.0685928685606
 32
0.0
 13
1136.224443774601
 23
158.0685928685606
 33
0.0
  0
MTEXT
  5
790A
330
7874
100
AcDbEntity
  8
标注
100
AcDbMText
 10
1136.224443774601
 20
149.0686108685669
 30
0.0
 40
0.65
 41
0.0
 71
     5
 72
     1
  1
\A1;18"
 11
0.0000000000000001
 21
1.0
 31
0.0
 73
     1
 44
1.0
1001
ACAD
1000
MTEXTBEGIN
1070
    73
1070
     1
1070
    44
1040
1.0
1070
    74
1070
     0
1000
MTEXTEND
  0
POINT
  5
790B
330
7874
100
AcDbEntity
  8
DEFPOINTS
 62
     0
100
AcDbPoint
 10
1141.191148629915
 20
140.0686288685728
 30
0.0
  0
POINT
  5
790C
330
7874
100
AcDbEntity
  8
DEFPOINTS
 62
     0
100
AcDbPoint
 10
1141.191148629915
 20
158.0685928685606
 30
0.0
  0
POINT
  5
790D
330
7874
100
AcDbEntity
  8
DEFPOINTS
 62
     0
100
AcDbPoint
 10
1136.224443774601
 20
158.0685928685606
 30
0.0
  0
ENDBLK
  5
7876
330
7874
100
AcDbEntity
  8
0
100
AcDbBlockEnd
  0
BLOCK
  5
7882
330
7881
100
AcDbEntity
  8
0
100
AcDbBlockBegin
  2
*D61
 70
     1
 10
0.0
 20
0.0
 30
0.0
  3
*D61
  1

  0
LINE
  5
790E
330
7881
100
AcDbEntity
  8
标注
  6
Continuous
370
    -2
100
AcDbLine
 10
1171.191088629938
 20
140.5823268685727
 30
0.0
 11
1171.191088629938
 21
137.6891985751556
 31
0.0
  0
LINE
  5
790F
330
7881
100
AcDbEntity
  8
标注
  6
Continuous
370
    -2
100
AcDbLine
 10
1152.191126629922
 20
140.5823268685727
 30
0.0
 11
1152.191126629922
 21
137.6891985751556
 31
0.0
  0
LINE
  5
7910
330
7881
100
AcDbEntity
  8
标注
  6
Continuous
370
    -2
100
AcDbLine
 10
1170.541088629938
 20
138.0091985751556
 30
0.0
 11
1162.586571477134
 21
138.0091985751556
 31
0.0
  0
LINE
  5
7911
330
7881
100
AcDbEntity
  8
标注
  6
Continuous
370
    -2
100
AcDbLine
 10
1152.841126629922
 20
138.0091985751556
 30
0.0
 11
1160.795643782727
 21
138.0091985751556
 31
0.0
  0
SOLID
  5
7912
330
7881
100
AcDbEntity
  8
标注
100
AcDbTrace
 10
1170.541088629938
 20
138.1175319084889
 30
0.0
 11
1170.541088629938
 21
137.9008652418223
 31
0.0
 12
1171.191088629938
 22
138.0091985751556
 32
0.0
 13
1171.191088629938
 23
138.0091985751556
 33
0.0
  0
SOLID
  5
7913
330
7881
100
AcDbEntity
  8
标注
100
AcDbTrace
 10
1152.841126629922
 20
138.1175319084889
 30
0.0
 11
1152.841126629922
 21
137.9008652418223
 31
0.0
 12
1152.191126629922
 22
138.0091985751556
 32
0.0
 13
1152.191126629922
 23
138.0091985751556
 33
0.0
  0
MTEXT
  5
7914
330
7881
100
AcDbEntity
  8
标注
100
AcDbMText
 10
1161.69110762993
 20
138.0091985751556
 30
0.0
 40
0.65
 41
0.0
 71
     5
 72
     1
  1
\A1;19"
 73
     1
 44
1.0
1001
ACAD
1000
MTEXTBEGIN
1070
    73
1070
     1
1070
    44
1040
1.0
1070
    74
1070
     0
1000
MTEXTEND
  0
POINT
  5
7915
330
7881
100
AcDbEntity
  8
DEFPOINTS
 62
     0
100
AcDbPoint
 10
1171.191088629938
 20
141.4623268685727
 30
0.0
  0
POINT
  5
7916
330
7881
100
AcDbEntity
  8
DEFPOINTS
 62
     0
100
AcDbPoint
 10
1152.191126629922
 20
141.4623268685727
 30
0.0
  0
POINT
  5
7917
330
7881
100
AcDbEntity
  8
DEFPOINTS
 62
     0
100
AcDbPoint
 10
1152.191126629922
 20
138.0091985751556
 30
0.0
  0
ENDBLK
  5
7883
330
7881
100
AcDbEntity
  8
0
100
AcDbBlockEnd
  0
BLOCK
  5
788F
330
788E
100
AcDbEntity
  8
0
100
AcDbBlockBegin
  2
*D62
 70
     1
 10
0.0
 20
0.0
 30
0.0
  3
*D62
  1

  0
LINE
  5
7918
330
788E
100
AcDbEntity
  8
标注
  6
Continuous
370
    -2
100
AcDbLine
 10
1151.191128629938
 20
140.5823268685727
 30
0.0
 11
1151.191128629938
 21
137.6891985751556
 31
0.0
  0
LINE
  5
7919
330
788E
100
AcDbEntity
  8
标注
  6
Continuous
370
    -2
100
AcDbLine
 10
1141.191148629915
 20
140.5823268685727
 30
0.0
 11
1141.191148629915
 21
137.6891985751556
 31
0.0
  0
LINE
  5
791A
330
788E
100
AcDbEntity
  8
标注
  6
Continuous
370
    -2
100
AcDbLine
 10
1150.541128629938
 20
138.0091985751556
 30
0.0
 11
1147.08660247713
 21
138.0091985751556
 31
0.0
  0
LINE
  5
791B
330
788E
100
AcDbEntity
  8
标注
  6
Continuous
370
    -2
100
AcDbLine
 10
1141.841148629915
 20
138.0091985751556
 30
0.0
 11
1145.295674782723
 21
138.0091985751556
 31
0.0
  0
SOLID
  5
791C
330
788E
100
AcDbEntity
  8
标注
100
AcDbTrace
 10
1150.541128629938
 20
138.1175319084889
 30
0.0
 11
1150.541128629938
 21
137.9008652418223
 31
0.0
 12
1151.191128629938
 22
138.0091985751556
 32
0.0
 13
1151.191128629938
 23
138.0091985751556
 33
0.0
  0
SOLID
  5
791D
330
788E
100
AcDbEntity
  8
标注
100
AcDbTrace
 10
1141.841148629915
 20
138.1175319084889
 30
0.0
 11
1141.841148629915
 21
137.9008652418223
 31
0.0
 12
1141.191148629915
 22
138.0091985751556
 32
0.0
 13
1141.191148629915
 23
138.0091985751556
 33
0.0
  0
MTEXT
  5
791E
330
788E
100
AcDbEntity
  8
标注
100
AcDbMText
 10
1146.191138629927
 20
138.0091985751556
 30
0.0
 40
0.65
 41
0.0
 71
     5
 72
     1
  1
\A1;10"
 73
     1
 44
1.0
1001
ACAD
1000
MTEXTBEGIN
1070
    73
1070
     1
1070
    44
1040
1.0
1070
    74
1070
     0
1000
MTEXTEND
  0
POINT
  5
791F
330
788E
100
AcDbEntity
  8
DEFPOINTS
 62
     0
100
AcDbPoint
 10
1151.191128629938
 20
141.4623268685727
 30
0.0
  0
POINT
  5
7920
330
788E
100
AcDbEntity
  8
DEFPOINTS
 62
     0
100
AcDbPoint
 10
1141.191148629915
 20
141.4623268685727
 30
0.0
  0
POINT
  5
7921
330
788E
100
AcDbEntity
  8
DEFPOINTS
 62
     0
100
AcDbPoint
 10
1141.191148629915
 20
138.0091985751556
 30
0.0
  0
ENDBLK
  5
7890
330
788E
100
AcDbEntity
  8
0
100
AcDbBlockEnd
  0
BLOCK
  5
789C
330
789B
100
AcDbEntity
  8
0
100
AcDbBlockBegin
  2
*D63
 70
     1
 10
0.0
 20
0.0
 30
0.0
  3
*D63
  1

  0
LINE
  5
7922
330
789B
100
AcDbEntity
  8
标注
  6
Continuous
370
    -2
100
AcDbLine
 10
1172.191086629938
 20
140.0362030444613
 30
0.0
 11
1172.191086629938
 21
135.8571036128273
 31
0.0
  0
LINE
  5
7923
330
789B
100
AcDbEntity
  8
标注
  6
Continuous
370
    -2
100
AcDbLine
 10
1140.191150629931
 20
140.0362030444613
 30
0.0
 11
1140.191150629931
 21
135.8571036128273
 31
0.0
  0
LINE
  5
7924
330
789B
100
AcDbEntity
  8
标注
  6
Continuous
370
    -2
100
AcDbLine
 10
1171.541086629938
 20
136.1771036128273
 30
0.0
 11
1157.116954237028
 21
136.1771036128273
 31
0.0
  0
LINE
  5
7925
330
789B
100
AcDbEntity
  8
标注
  6
Continuous
370
    -2
100
AcDbLine
 10
1140.841150629931
 20
136.1771036128273
 30
0.0
 11
1155.26528302284
 21
136.1771036128273
 31
0.0
  0
SOLID
  5
7926
330
789B
100
AcDbEntity
  8
标注
100
AcDbTrace
 10
1171.541086629938
 20
136.2854369461606
 30
0.0
 11
1171.541086629938
 21
136.068770279494
 31
0.0
 12
1172.191086629938
 22
136.1771036128273
 32
0.0
 13
1172.191086629938
 23
136.1771036128273
 33
0.0
  0
SOLID
  5
7927
330
789B
100
AcDbEntity
  8
标注
100
AcDbTrace
 10
1140.841150629931
 20
136.2854369461606
 30
0.0
 11
1140.841150629931
 21
136.068770279494
 31
0.0
 12
1140.191150629931
 22
136.1771036128273
 32
0.0
 13
1140.191150629931
 23
136.1771036128273
 33
0.0
  0
MTEXT
  5
7928
330
789B
100
AcDbEntity
  8
标注
100
AcDbMText
 10
1156.191118629934
 20
136.1771036128273
 30
0.0
 40
0.65
 41
0.0
 71
     5
 72
     1
  1
\A1;32"
 73
     1
 44
1.0
1001
ACAD
1000
MTEXTBEGIN
1070
    73
1070
     1
1070
    44
1040
1.0
1070
    74
1070
     0
1000
MTEXTEND
  0
POINT
  5
7929
330
789B
100
AcDbEntity
  8
DEFPOINTS
 62
     0
100
AcDbPoint
 10
1172.191086629938
 20
140.9162030444613
 30
0.0
  0
POINT
  5
792A
330
789B
100
AcDbEntity
  8
DEFPOINTS
 62
     0
100
AcDbPoint
 10
1140.191150629931
 20
140.9162030444613
 30
0.0
  0
POINT
  5
792B
330
789B
100
AcDbEntity
  8
DEFPOINTS
 62
     0
100
AcDbPoint
 10
1140.191150629931
 20
136.1771036128273
 30
0.0
  0
ENDBLK
  5
789D
330
789B
100
AcDbEntity
  8
0
100
AcDbBlockEnd
  0
BLOCK
  5
78A9
330
78A8
100
AcDbEntity
  8
0
100
AcDbBlockBegin
  2
*D64
 70
     1
 10
0.0
 20
0.0
 30
0.0
  3
*D64
  1

  0
LINE
  5
792C
330
78A8
100
AcDbEntity
  8
标注
  6
Continuous
370
    -2
100
AcDbLine
 10
1171.269828629921
 20
109.9332343613442
 30
0.0
 11
1171.269828629921
 21
107.2728605476784
 31
0.0
  0
LINE
  5
792D
330
78A8
100
AcDbEntity
  8
标注
  6
Continuous
370
    -2
100
AcDbLine
 10
1141.112408629918
 20
109.9332343613442
 30
0.0
 11
1141.112408629918
 21
107.2728605476784
 31
0.0
  0
LINE
  5
792E
330
78A8
100
AcDbEntity
  8
标注
  6
Continuous
370
    -2
100
AcDbLine
 10
1170.619828629921
 20
107.5928605476784
 30
0.0
 11
1157.874253009183
 21
107.5928605476784
 31
0.0
  0
LINE
  5
792F
330
78A8
100
AcDbEntity
  8
标注
  6
Continuous
370
    -2
100
AcDbLine
 10
1141.762408629918
 20
107.5928605476784
 30
0.0
 11
1154.507984250656
 21
107.5928605476784
 31
0.0
  0
SOLID
  5
7930
330
78A8
100
AcDbEntity
  8
标注
100
AcDbTrace
 10
1170.619828629921
 20
107.7011938810117
 30
0.0
 11
1170.619828629921
 21
107.484527214345
 31
0.0
 12
1171.269828629921
 22
107.5928605476784
 32
0.0
 13
1171.269828629921
 23
107.5928605476784
 33
0.0
  0
SOLID
  5
7931
330
78A8
100
AcDbEntity
  8
标注
100
AcDbTrace
 10
1141.762408629918
 20
107.7011938810117
 30
0.0
 11
1141.762408629918
 21
107.484527214345
 31
0.0
 12
1141.112408629918
 22
107.5928605476784
 32
0.0
 13
1141.112408629918
 23
107.5928605476784
 33
0.0
  0
MTEXT
  5
7932
330
78A8
100
AcDbEntity
  8
标注
100
AcDbMText
 10
1156.19111862992
 20
107.5928605476784
 30
0.0
 40
0.65
 41
0.0
 71
     5
 72
     1
  1
\A1;30 1/8"
 73
     1
 44
1.0
1001
ACAD
1000
MTEXTBEGIN
1070
    73
1070
     1
1070
    44
1040
1.0
1070
    74
1070
     0
1000
MTEXTEND
  0
POINT
  5
7933
330
78A8
100
AcDbEntity
  8
DEFPOINTS
 62
     0
100
AcDbPoint
 10
1171.269828629921
 20
110.8132343613442
 30
0.0
  0
POINT
  5
7934
330
78A8
100
AcDbEntity
  8
DEFPOINTS
 62
     0
100
AcDbPoint
 10
1141.112408629918
 20
110.8132343613442
 30
0.0
  0
POINT
  5
7935
330
78A8
100
AcDbEntity
  8
DEFPOINTS
 62
     0
100
AcDbPoint
 10
1141.112408629918
 20
107.5928605476784
 30
0.0
  0
ENDBLK
  5
78AA
330
78A8
100
AcDbEntity
  8
0
100
AcDbBlockEnd
  0
BLOCK
  5
78B6
330
78B5
100
AcDbEntity
  8
0
100
AcDbBlockBegin
  2
*D65
 70
     1
 10
0.0
 20
0.0
 30
0.0
  3
*D65
  1

  0
LINE
  5
7936
330
78B5
100
AcDbEntity
  8
标注
  6
Continuous
370
    -2
100
AcDbLine
 10
1140.70484862993
 20
110.340794361361
 30
0.0
 11
1138.567527212416
 21
110.340794361361
 31
0.0
  0
LINE
  5
7937
330
78B5
100
AcDbEntity
  8
标注
  6
Continuous
370
    -2
100
AcDbLine
 10
1140.70484862993
 20
126.4982423613614
 30
0.0
 11
1138.567527212416
 21
126.4982423613614
 31
0.0
  0
LINE
  5
7938
330
78B5
100
AcDbEntity
  8
标注
  6
Continuous
370
    -2
100
AcDbLine
 10
1138.887527212416
 20
110.990794361361
 30
0.0
 11
1138.887527212416
 21
116.7667557419888
 31
0.0
  0
LINE
  5
7939
330
78B5
100
AcDbEntity
  8
标注
  6
Continuous
370
    -2
100
AcDbLine
 10
1138.887527212416
 20
125.8482423613614
 30
0.0
 11
1138.887527212416
 21
120.0722809807337
 31
0.0
  0
SOLID
  5
793A
330
78B5
100
AcDbEntity
  8
标注
100
AcDbTrace
 10
1138.779193879083
 20
110.990794361361
 30
0.0
 11
1138.995860545749
 21
110.990794361361
 31
0.0
 12
1138.887527212416
 22
110.340794361361
 32
0.0
 13
1138.887527212416
 23
110.340794361361
 33
0.0
  0
SOLID
  5
793B
330
78B5
100
AcDbEntity
  8
标注
100
AcDbTrace
 10
1138.779193879083
 20
125.8482423613614
 30
0.0
 11
1138.995860545749
 21
125.8482423613614
 31
0.0
 12
1138.887527212416
 22
126.4982423613614
 32
0.0
 13
1138.887527212416
 23
126.4982423613614
 33
0.0
  0
MTEXT
  5
793C
330
78B5
100
AcDbEntity
  8
标注
100
AcDbMText
 10
1138.887527212416
 20
118.4195183613614
 30
0.0
 40
0.65
 41
0.0
 71
     5
 72
     1
  1
\A1;16 1/8"
 11
0.0000000000000001
 21
1.0
 31
0.0
 73
     1
 44
1.0
1001
ACAD
1000
MTEXTBEGIN
1070
    73
1070
     1
1070
    44
1040
1.0
1070
    74
1070
     0
1000
MTEXTEND
  0
POINT
  5
793D
330
78B5
100
AcDbEntity
  8
DEFPOINTS
 62
     0
100
AcDbPoint
 10
1141.584848629931
 20
110.340794361361
 30
0.0
  0
POINT
  5
793E
330
78B5
100
AcDbEntity
  8
DEFPOINTS
 62
     0
100
AcDbPoint
 10
1141.584848629931
 20
126.4982423613614
 30
0.0
  0
POINT
  5
793F
330
78B5
100
AcDbEntity
  8
DEFPOINTS
 62
     0
100
AcDbPoint
 10
1138.887527212416
 20
126.4982423613614
 30
0.0
  0
ENDBLK
  5
78B7
330
78B5
100
AcDbEntity
  8
0
100
AcDbBlockEnd
  0
BLOCK
  5
78C3
330
78C2
100
AcDbEntity
  8
0
100
AcDbBlockBegin
  2
*D66
 70
     1
 10
0.0
 20
0.0
 30
0.0
  3
*D66
  1

  0
LINE
  5
7940
330
78C2
100
AcDbEntity
  8
标注
  6
Continuous
370
    -2
100
AcDbLine
 10
1139.31115062993
 20
176.8214766457615
 30
0.0
 11
1137.911701101988
 21
176.8214766457615
 31
0.0
  0
LINE
  5
7941
330
78C2
100
AcDbEntity
  8
标注
  6
Continuous
370
    -2
100
AcDbLine
 10
1139.31115062993
 20
168.8214766457616
 30
0.0
 11
1137.911701101988
 21
168.8214766457616
 31
0.0
  0
LINE
  5
7942
330
78C2
100
AcDbEntity
  8
标注
  6
Continuous
370
    -2
100
AcDbLine
 10
1138.231701101988
 20
176.1714766457616
 30
0.0
 11
1138.231701101988
 21
173.4954705066074
 31
0.0
  0
LINE
  5
7943
330
78C2
100
AcDbEntity
  8
标注
  6
Continuous
370
    -2
100
AcDbLine
 10
1138.231701101988
 20
169.4714766457616
 30
0.0
 11
1138.231701101988
 21
172.1474827849157
 31
0.0
  0
SOLID
  5
7944
330
78C2
100
AcDbEntity
  8
标注
100
AcDbTrace
 10
1138.123367768655
 20
176.1714766457616
 30
0.0
 11
1138.340034435322
 21
176.1714766457616
 31
0.0
 12
1138.231701101988
 22
176.8214766457615
 32
0.0
 13
1138.231701101988
 23
176.8214766457615
 33
0.0
  0
SOLID
  5
7945
330
78C2
100
AcDbEntity
  8
标注
100
AcDbTrace
 10
1138.123367768655
 20
169.4714766457616
 30
0.0
 11
1138.340034435322
 21
169.4714766457616
 31
0.0
 12
1138.231701101988
 22
168.8214766457616
 32
0.0
 13
1138.231701101988
 23
168.8214766457616
 33
0.0
  0
MTEXT
  5
7946
330
78C2
100
AcDbEntity
  8
标注
100
AcDbMText
 10
1138.231701101988
 20
172.8214766457617
 30
0.0
 40
0.65
 41
0.0
 71
     5
 72
     1
  1
\A1;8"
 11
0.0000000000000001
 21
1.0
 31
0.0
 73
     1
 44
1.0
1001
ACAD
1000
MTEXTBEGIN
1070
    73
1070
     1
1070
    44
1040
1.0
1070
    74
1070
     0
1000
MTEXTEND
  0
POINT
  5
7947
330
78C2
100
AcDbEntity
  8
DEFPOINTS
 62
     0
100
AcDbPoint
 10
1140.191150629931
 20
176.8214766457615
 30
0.0
  0
POINT
  5
7948
330
78C2
100
AcDbEntity
  8
DEFPOINTS
 62
     0
100
AcDbPoint
 10
1140.191150629931
 20
168.8214766457616
 30
0.0
  0
POINT
  5
7949
330
78C2
100
AcDbEntity
  8
DEFPOINTS
 62
     0
100
AcDbPoint
 10
1138.231701101988
 20
168.8214766457616
 30
0.0
  0
ENDBLK
  5
78C4
330
78C2
100
AcDbEntity
  8
0
100
AcDbBlockEnd
  0
BLOCK
  5
78D0
330
78CF
100
AcDbEntity
  8
0
100
AcDbBlockBegin
  2
*D67
 70
     1
 10
0.0
 20
0.0
 30
0.0
  3
*D67
  1

  0
LINE
  5
794A
330
78CF
100
AcDbEntity
  8
标注
  6
Continuous
370
    -2
100
AcDbLine
 10
1173.071086629938
 20
176.8214766457615
 30
0.0
 11
1174.459014803826
 21
176.8214766457615
 31
0.0
  0
LINE
  5
794B
330
78CF
100
AcDbEntity
  8
标注
  6
Continuous
370
    -2
100
AcDbLine
 10
1173.071086629938
 20
167.8214766457616
 30
0.0
 11
1174.459014803826
 21
167.8214766457616
 31
0.0
  0
LINE
  5
794C
330
78CF
100
AcDbEntity
  8
标注
  6
Continuous
370
    -2
100
AcDbLine
 10
1174.139014803826
 20
176.1714766457616
 30
0.0
 11
1174.139014803826
 21
172.9950271232513
 31
0.0
  0
LINE
  5
794D
330
78CF
100
AcDbEntity
  8
标注
  6
Continuous
370
    -2
100
AcDbLine
 10
1174.139014803826
 20
168.4714766457616
 30
0.0
 11
1174.139014803826
 21
171.6479261682718
 31
0.0
  0
SOLID
  5
794E
330
78CF
100
AcDbEntity
  8
标注
100
AcDbTrace
 10
1174.030681470493
 20
176.1714766457616
 30
0.0
 11
1174.24734813716
 21
176.1714766457616
 31
0.0
 12
1174.139014803826
 22
176.8214766457615
 32
0.0
 13
1174.139014803826
 23
176.8214766457615
 33
0.0
  0
SOLID
  5
794F
330
78CF
100
AcDbEntity
  8
标注
100
AcDbTrace
 10
1174.030681470493
 20
168.4714766457616
 30
0.0
 11
1174.24734813716
 21
168.4714766457616
 31
0.0
 12
1174.139014803826
 22
167.8214766457616
 32
0.0
 13
1174.139014803826
 23
167.8214766457616
 33
0.0
  0
MTEXT
  5
7950
330
78CF
100
AcDbEntity
  8
标注
100
AcDbMText
 10
1174.139014803826
 20
172.3214766457617
 30
0.0
 40
0.65
 41
0.0
 71
     5
 72
     1
  1
\A1;9"
 11
0.0000000000000001
 21
1.0
 31
0.0
 73
     1
 44
1.0
1001
ACAD
1000
MTEXTBEGIN
1070
    73
1070
     1
1070
    44
1040
1.0
1070
    74
1070
     0
1000
MTEXTEND
  0
POINT
  5
7951
330
78CF
100
AcDbEntity
  8
DEFPOINTS
 62
     0
100
AcDbPoint
 10
1172.191086629938
 20
176.8214766457615
 30
0.0
  0
POINT
  5
7952
330
78CF
100
AcDbEntity
  8
DEFPOINTS
 62
     0
100
AcDbPoint
 10
1172.191086629938
 20
167.8214766457616
 30
0.0
  0
POINT
  5
7953
330
78CF
100
AcDbEntity
  8
DEFPOINTS
 62
     0
100
AcDbPoint
 10
1174.139014803826
 20
167.8214766457616
 30
0.0
  0
ENDBLK
  5
78D1
330
78CF
100
AcDbEntity
  8
0
100
AcDbBlockEnd
  0
BLOCK
  5
78DD
330
78DC
100
AcDbEntity
  8
0
100
AcDbBlockBegin
  2
*D68
 70
     1
 10
0.0
 20
0.0
 30
0.0
  3
*D68
  1

  0
LINE
  5
7954
330
78DC
100
AcDbEntity
  8
标注
  6
Continuous
370
    -2
100
AcDbLine
 10
1171.427806259472
 20
109.8845551024106
 30
0.0
 11
1171.792878298241
 21
109.3467610837486
 31
0.0
  0
MTEXT
  5
7955
330
78DC
100
AcDbEntity
  8
标注
100
AcDbMText
 10
1170.383609030592
 20
111.9147757660897
 30
0.0
 40
0.65
 41
0.0
 71
     5
 72
     1
  1
\A1;R1/2"
 11
0.5616492904146523
 21
-0.8273754133262103
 31
0.0
 73
     1
 44
1.0
1001
ACAD
1000
MTEXTBEGIN
1070
    73
1070
     1
1070
    44
1040
1.0
1070
    74
1070
     0
1000
MTEXTEND
  0
LINE
  5
7956
330
78DC
100
AcDbEntity
  8
标注
  6
Continuous
370
    -2
100
AcDbLine
 10
1170.797388629938
 20
110.8132343613444
 30
0.0
 11
1171.062734220702
 21
110.4223491210726
 31
0.0
  0
SOLID
  5
7957
330
78DC
100
AcDbEntity
  8
标注
100
AcDbTrace
 10
1171.517438595915
 20
109.9454004422055
 30
0.0
 11
1171.338173923028
 21
109.8237097626157
 31
0.0
 12
1171.062734220702
 22
110.4223491210726
 32
0.0
 13
1171.062734220702
 23
110.4223491210726
 33
0.0
  0
ARC
  5
7958
330
78DC
100
AcDbEntity
  8
标注
  6
Continuous
370
    -2
100
AcDbCircle
 10
1170.797388629938
 20
110.8132343613444
 30
0.0
 40
0.4724399999998923
100
AcDbArc
 50
270.0
 51
342.9783530120901
  0
POINT
  5
7959
330
78DC
100
AcDbEntity
  8
DEFPOINTS
 62
     0
100
AcDbPoint
 10
1171.062734220702
 20
110.4223491210726
 30
0.0
  0
POINT
  5
795A
330
78DC
100
AcDbEntity
  8
DEFPOINTS
 62
     0
100
AcDbPoint
 10
1170.797388629938
 20
110.8132343613444
 30
0.0
  0
ENDBLK
  5
78DE
330
78DC
100
AcDbEntity
  8
0
100
AcDbBlockEnd
  0
BLOCK
  5
795D
330
795C
100
AcDbEntity
  8
0
100
AcDbBlockBegin
  2
*D69
 70
     1
 10
0.0
 20
0.0
 30
0.0
  3
*D69
  1

  0
LINE
  5
7969
330
795C
100
AcDbEntity
  8
标注
  6
Continuous
370
    -2
100
AcDbLine
 10
1171.677388629938
 20
110.3407943613873
 30
0.0
 11
1173.814710047423
 21
110.3407943613873
 31
0.0
  0
LINE
  5
796A
330
795C
100
AcDbEntity
  8
标注
  6
Continuous
370
    -2
100
AcDbLine
 10
1171.677388629909
 20
126.4982423613877
 30
0.0
 11
1173.814710047423
 21
126.4982423613877
 31
0.0
  0
LINE
  5
796B
330
795C
100
AcDbEntity
  8
标注
  6
Continuous
370
    -2
100
AcDbLine
 10
1173.494710047424
 20
110.9907943613873
 30
0.0
 11
1173.494710047424
 21
116.7667557420151
 31
0.0
  0
LINE
  5
796C
330
795C
100
AcDbEntity
  8
标注
  6
Continuous
370
    -2
100
AcDbLine
 10
1173.494710047424
 20
125.8482423613877
 30
0.0
 11
1173.494710047424
 21
120.07228098076
 31
0.0
  0
SOLID
  5
796D
330
795C
100
AcDbEntity
  8
标注
100
AcDbTrace
 10
1173.38637671409
 20
110.9907943613873
 30
0.0
 11
1173.603043380757
 21
110.9907943613873
 31
0.0
 12
1173.494710047424
 22
110.3407943613873
 32
0.0
 13
1173.494710047424
 23
110.3407943613873
 33
0.0
  0
SOLID
  5
796E
330
795C
100
AcDbEntity
  8
标注
100
AcDbTrace
 10
1173.38637671409
 20
125.8482423613877
 30
0.0
 11
1173.603043380757
 21
125.8482423613877
 31
0.0
 12
1173.494710047424
 22
126.4982423613877
 32
0.0
 13
1173.494710047424
 23
126.4982423613877
 33
0.0
  0
MTEXT
  5
796F
330
795C
100
AcDbEntity
  8
标注
100
AcDbMText
 10
1173.494710047424
 20
118.4195183613877
 30
0.0
 40
0.65
 41
0.0
 71
     5
 72
     1
  1
\A1;16 1/8"
 11
0.0000000000000001
 21
1.0
 31
0.0
 73
     1
 44
1.0
1001
ACAD
1000
MTEXTBEGIN
1070
    73
1070
     1
1070
    44
1040
1.0
1070
    74
1070
     0
1000
MTEXTEND
  0
POINT
  5
7970
330
795C
100
AcDbEntity
  8
DEFPOINTS
 62
     0
100
AcDbPoint
 10
1170.797388629938
 20
110.3407943613873
 30
0.0
  0
POINT
  5
7971
330
795C
100
AcDbEntity
  8
DEFPOINTS
 62
     0
100
AcDbPoint
 10
1170.797388629909
 20
126.4982423613877
 30
0.0
  0
POINT
  5
7972
330
795C
100
AcDbEntity
  8
DEFPOINTS
 62
     0
100
AcDbPoint
 10
1173.494710047424
 20
126.4982423613877
 30
0.0
  0
ENDBLK
  5
795E
330
795C
100
AcDbEntity
  8
0
100
AcDbBlockEnd
  0
BLOCK
  5
7976
330
7975
100
AcDbEntity
  8
0
100
AcDbBlockBegin
  2
*D70
 70
     1
 10
0.0
 20
0.0
 30
0.0
  3
*D70
  1

  0
LINE
  5
798F
330
7975
100
AcDbEntity
  8
标注
  6
Continuous
370
    -2
100
AcDbLine
 10
1171.677388629909
 20
141.0686268685727
 30
0.0
 11
1174.619850006428
 21
141.0686268685727
 31
0.0
  0
LINE
  5
7990
330
7975
100
AcDbEntity
  8
标注
  6
Continuous
370
    -2
100
AcDbLine
 10
1171.677388629909
 20
157.0685948685608
 30
0.0
 11
1174.619850006428
 21
157.0685948685608
 31
0.0
  0
LINE
  5
7991
330
7975
100
AcDbEntity
  8
标注
  6
Continuous
370
    -2
100
AcDbLine
 10
1174.299850006428
 20
141.7186268685727
 30
0.0
 11
1174.299850006428
 21
148.1731470213635
 31
0.0
  0
LINE
  5
7992
330
7975
100
AcDbEntity
  8
标注
  6
Continuous
370
    -2
100
AcDbLine
 10
1174.299850006428
 20
156.4185948685608
 30
0.0
 11
1174.299850006428
 21
149.96407471577
 31
0.0
  0
SOLID
  5
7993
330
7975
100
AcDbEntity
  8
标注
100
AcDbTrace
 10
1174.191516673094
 20
141.7186268685727
 30
0.0
 11
1174.408183339761
 21
141.7186268685727
 31
0.0
 12
1174.299850006428
 22
141.0686268685727
 32
0.0
 13
1174.299850006428
 23
141.0686268685727
 33
0.0
  0
SOLID
  5
7994
330
7975
100
AcDbEntity
  8
标注
100
AcDbTrace
 10
1174.191516673094
 20
156.4185948685608
 30
0.0
 11
1174.408183339761
 21
156.4185948685608
 31
0.0
 12
1174.299850006428
 22
157.0685948685608
 32
0.0
 13
1174.299850006428
 23
157.0685948685608
 33
0.0
  0
MTEXT
  5
7995
330
7975
100
AcDbEntity
  8
标注
100
AcDbMText
 10
1174.299850006428
 20
149.0686108685669
 30
0.0
 40
0.65
 41
0.0
 71
     5
 72
     1
  1
\A1;16"
 11
0.0000000000000001
 21
1.0
 31
0.0
 73
     1
 44
1.0
1001
ACAD
1000
MTEXTBEGIN
1070
    73
1070
     1
1070
    44
1040
1.0
1070
    74
1070
     0
1000
MTEXTEND
  0
POINT
  5
7996
330
7975
100
AcDbEntity
  8
DEFPOINTS
 62
     0
100
AcDbPoint
 10
1170.797388629909
 20
141.0686268685727
 30
0.0
  0
POINT
  5
7997
330
7975
100
AcDbEntity
  8
DEFPOINTS
 62
     0
100
AcDbPoint
 10
1170.797388629909
 20
157.0685948685608
 30
0.0
  0
POINT
  5
7998
330
7975
100
AcDbEntity
  8
DEFPOINTS
 62
     0
100
AcDbPoint
 10
1174.299850006428
 20
157.0685948685608
 30
0.0
  0
ENDBLK
  5
7977
330
7975
100
AcDbEntity
  8
0
100
AcDbBlockEnd
  0
BLOCK
  5
7983
330
7982
100
AcDbEntity
  8
0
100
AcDbBlockBegin
  2
*D71
 70
     1
 10
0.0
 20
0.0
 30
0.0
  3
*D71
  1

  0
LINE
  5
7999
330
7982
100
AcDbEntity
  8
标注
  6
Continuous
370
    -2
100
AcDbLine
 10
1172.071088629925
 20
140.0686288685728
 30
0.0
 11
1176.477793485239
 21
140.0686288685728
 31
0.0
  0
LINE
  5
799A
330
7982
100
AcDbEntity
  8
标注
  6
Continuous
370
    -2
100
AcDbLine
 10
1172.071088629925
 20
158.0685928685606
 30
0.0
 11
1176.477793485239
 21
158.0685928685606
 31
0.0
  0
LINE
  5
799B
330
7982
100
AcDbEntity
  8
标注
  6
Continuous
370
    -2
100
AcDbLine
 10
1176.157793485239
 20
140.7186288685728
 30
0.0
 11
1176.157793485239
 21
148.1731470213635
 31
0.0
  0
LINE
  5
799C
330
7982
100
AcDbEntity
  8
标注
  6
Continuous
370
    -2
100
AcDbLine
 10
1176.157793485239
 20
157.4185928685606
 30
0.0
 11
1176.157793485239
 21
149.96407471577
 31
0.0
  0
SOLID
  5
799D
330
7982
100
AcDbEntity
  8
标注
100
AcDbTrace
 10
1176.049460151905
 20
140.7186288685728
 30
0.0
 11
1176.266126818572
 21
140.7186288685728
 31
0.0
 12
1176.157793485239
 22
140.0686288685728
 32
0.0
 13
1176.157793485239
 23
140.0686288685728
 33
0.0
  0
SOLID
  5
799E
330
7982
100
AcDbEntity
  8
标注
100
AcDbTrace
 10
1176.049460151905
 20
157.4185928685606
 30
0.0
 11
1176.266126818572
 21
157.4185928685606
 31
0.0
 12
1176.157793485239
 22
158.0685928685606
 32
0.0
 13
1176.157793485239
 23
158.0685928685606
 33
0.0
  0
MTEXT
  5
799F
330
7982
100
AcDbEntity
  8
标注
100
AcDbMText
 10
1176.157793485239
 20
149.0686108685669
 30
0.0
 40
0.65
 41
0.0
 71
     5
 72
     1
  1
\A1;18"
 11
0.0000000000000001
 21
1.0
 31
0.0
 73
     1
 44
1.0
1001
ACAD
1000
MTEXTBEGIN
1070
    73
1070
     1
1070
    44
1040
1.0
1070
    74
1070
     0
1000
MTEXTEND
  0
POINT
  5
79A0
330
7982
100
AcDbEntity
  8
DEFPOINTS
 62
     0
100
AcDbPoint
 10
1171.191088629925
 20
140.0686288685728
 30
0.0
  0
POINT
  5
79A1
330
7982
100
AcDbEntity
  8
DEFPOINTS
 62
     0
100
AcDbPoint
 10
1171.191088629925
 20
158.0685928685606
 30
0.0
  0
POINT
  5
79A2
330
7982
100
AcDbEntity
  8
DEFPOINTS
 62
     0
100
AcDbPoint
 10
1176.157793485239
 20
158.0685928685606
 30
0.0
  0
ENDBLK
  5
7984
330
7982
100
AcDbEntity
  8
0
100
AcDbBlockEnd
  0
ENDSEC
  0
SECTION
  2
ENTITIES
  0
LINE
  5
77AD
330
5F6E
100
AcDbEntity
  8
0
100
AcDbLine
 10
1141.038724805819
 20
140.0686288685728
 30
0.0
 11
1171.343512454021
 21
140.0686288685728
 31
0.0
  0
ARC
  5
77AE
330
5F6E
100
AcDbEntity
  8
0
100
AcDbCircle
 10
1171.343512454021
 20
140.14736886857
 30
0.0
 40
0.07874
100
AcDbArc
 50
270.0
 51
315.0000000000025
  0
LINE
  5
77AF
330
5F6E
100
AcDbEntity
  8
0
100
AcDbLine
 10
1172.168024217864
 20
140.860525456509
 30
0.0
 11
1171.399190041973
 21
140.0916912806178
 31
0.0
  0
LINE
  5
77B0
330
5F6E
100
AcDbEntity
  8
0
100
AcDbLine
 10
1152.584826629938
 20
141.0686268685576
 30
0.0
 11
1170.797388629938
 21
141.0686268685576
 31
0.0
  0
LINE
  5
77B1
330
5F6E
100
AcDbEntity
  8
0
100
AcDbLine
 10
1170.797388629938
 20
157.0685948685759
 30
0.0
 11
1152.584826629938
 21
157.0685948685759
 31
0.0
  0
ARC
  5
77B2
330
5F6E
100
AcDbEntity
  8
0
100
AcDbCircle
 10
1170.797388629938
 20
156.6748948685608
 30
0.0
 40
0.3937
100
AcDbArc
 50
0.000000000000007
 51
90.0
  0
LINE
  5
77B3
330
5F6E
100
AcDbEntity
  8
0
100
AcDbLine
 10
1152.073016629941
 20
176.8214766457615
 30
0.0
 11
1171.309198629935
 21
176.8214766457615
 31
0.0
  0
LINE
  5
77B4
330
5F6E
100
AcDbEntity
  8
0
 48
5.0
100
AcDbLine
 10
1171.191580754917
 20
148.9566430611785
 30
0.0
 11
1171.191580754917
 21
148.9566430611785
 31
0.0
  0
REGION
  5
77B5
330
5F6E
100
AcDbEntity
  8
0
100
AcDbModelerGeometry
 70
     1
  1
koo nn n o          
  1
ni ^ *+0;:,4 ^ *+0\^ [ nh ^ LR nmqoqnqgmo QK o  
  1
mjqlffffffffffffff fqfffffffffffffffj:rooh n:rono 
  1
=0;& {rn {n {rn {rn |
  1
3*2/ {rn {rn {m {o |
  1
,7:33 {rn {rn {rn {l {rn {n |
  1
9><: {rn {rn {k {m {rn {j 90-(>-; ;0*=3: 0*+ |
  1
300/ {rn {rn {i {l |
  1
/3>1:r,*-9><: {rn nninqifnnohimffmli njmqjknokkgigjhhom o o o n oqolflhoooooooooooom o o 90-(>-;@) V V V V |
  1
<0:;8: {rn {i {i {rn {h 90-(>-; {k {rn |
  1
:;8: {rn {g {g {i {f 90-(>-; |
  1
):-+:' {rn {h {no |
  1
:336/,:r<*-): {rn nninqifnnohimffmli njmqjknokkgigjhhom o ro ro n mqmglkiooooooooool o o n V V |
  1
/061+ {rn nnilqfhkjihimffmfh njmqjknokkgigjhhom o |
  0
CIRCLE
  5
77B6
330
5F6E
100
AcDbEntity
  8
细实线
100
AcDbCircle
 10
1161.691107629923
 20
152.541044868577
 30
0.0
 40
2.16535
  0
CIRCLE
  5
77B7
330
5F6E
100
AcDbEntity
  8
0
100
AcDbCircle
 10
1161.691107629923
 20
152.541044868577
 30
0.0
 40
1.791335
  0
LINE
  5
77B8
330
5F6E
100
AcDbEntity
  8
0
 48
5.0
100
AcDbLine
 10
1171.343512454021
 20
158.0685928685606
 30
0.0
 11
1141.038724805819
 21
158.0685928685606
 31
0.0
  0
ARC
  5
77B9
330
5F6E
100
AcDbEntity
  8
0
 48
5.0
100
AcDbCircle
 10
1171.343512454021
 20
157.9898528685635
 30
0.0
 40
0.07874
100
AcDbArc
 50
44.99999999999749
 51
90.0
  0
ARC
  5
77BA
330
5F6E
100
AcDbEntity
  8
0
 48
5.0
100
AcDbCircle
 10
1141.038724805819
 20
157.9898528685635
 30
0.0
 40
0.07874
100
AcDbArc
 50
90.0
 51
135.0000000000025
  0
LINE
  5
77BB
330
5F6E
100
AcDbEntity
  8
0
 48
5.0
100
AcDbLine
 10
1172.168024217864
 20
157.2766962806244
 30
0.0
 11
1171.399190041973
 21
158.0455304565157
 31
0.0
  0
LINE
  5
77BC
330
5F6E
100
AcDbEntity
  8
0
100
AcDbLine
 10
1170.797388629938
 20
156.6748948685608
 30
0.0
 11
1163.770354602291
 21
153.4849313021886
 31
0.0
  0
LINE
  5
77BD
330
5F6E
100
AcDbEntity
  8
0
100
AcDbLine
 10
1152.584826629938
 20
141.4623268685727
 30
0.0
 11
1160.24114415292
 21
150.77701666956
 31
0.0
  0
LINE
  5
77BE
330
5F6E
100
AcDbEntity
  8
0
100
AcDbLine
 10
1159.611860657585
 20
153.4849313021886
 30
0.0
 11
1152.584826629938
 21
156.6748948685608
 31
0.0
  0
LINE
  5
77BF
330
5F6E
100
AcDbEntity
  8
0
100
AcDbLine
 10
1163.141071106927
 20
150.77701666956
 30
0.0
 11
1170.797388629938
 21
141.4623268685727
 31
0.0
  0
LINE
  5
77C0
330
5F6E
100
AcDbEntity
  8
0
100
AcDbLine
 10
1171.191088629924
 20
156.6748948685608
 30
0.0
 11
1171.191088629924
 21
141.4623268685727
 31
0.0
  0
ARC
  5
77C1
330
5F6E
100
AcDbEntity
  8
0
100
AcDbCircle
 10
1170.797388629938
 20
141.4623268685727
 30
0.0
 40
0.3937
100
AcDbArc
 50
270.0
 51
0.000000000000007
  0
LINE
  5
77C2
330
5F6E
100
AcDbEntity
  8
0
100
AcDbLine
 10
1152.191126629922
 20
156.6748948685608
 30
0.0
 11
1152.191126629922
 21
141.4623268685727
 31
0.0
  0
ARC
  5
77C3
330
5F6E
100
AcDbEntity
  8
0
100
AcDbCircle
 10
1152.584826629938
 20
141.4623268685727
 30
0.0
 40
0.3937
100
AcDbArc
 50
180.0
 51
270.0
  0
ARC
  5
77C4
330
5F6E
100
AcDbEntity
  8
0
100
AcDbCircle
 10
1152.584826629938
 20
156.6748948685608
 30
0.0
 40
0.3937
100
AcDbArc
 50
90.0
 51
180.0
  0
LINE
  5
77C5
330
5F6E
100
AcDbEntity
  8
0
100
AcDbLine
 10
1172.191086629938
 20
157.2210186926722
 30
0.0
 11
1172.191086629938
 21
140.9162030444613
 31
0.0
  0
ARC
  5
77C6
330
5F6E
100
AcDbEntity
  8
0
100
AcDbCircle
 10
1172.112346629941
 20
140.9162030444613
 30
0.0
 40
0.07874
100
AcDbArc
 50
315.0000000000025
 51
0.000000000000007
  0
ARC
  5
77C7
330
5F6E
100
AcDbEntity
  8
0
100
AcDbCircle
 10
1172.112346629941
 20
157.2210186926722
 30
0.0
 40
0.07874
100
AcDbArc
 50
0.000000000000007
 51
44.99999999999749
  0
LINE
  5
77C8
330
5F6E
100
AcDbEntity
  8
0
100
AcDbLine
 10
1150.797428629923
 20
141.0686268685576
 30
0.0
 11
1141.584848629931
 21
141.0686268685576
 31
0.0
  0
LINE
  5
77C9
330
5F6E
100
AcDbEntity
  8
0
100
AcDbLine
 10
1141.584848629931
 20
157.0685948685759
 30
0.0
 11
1150.797428629923
 21
157.0685948685759
 31
0.0
  0
ARC
  5
77CA
330
5F6E
100
AcDbEntity
  8
0
100
AcDbCircle
 10
1150.797428629923
 20
156.6748948685608
 30
0.0
 40
0.3937
100
AcDbArc
 50
0.000000000000007
 51
90.0
  0
LINE
  5
77CB
330
5F6E
100
AcDbEntity
  8
0
 48
5.0
100
AcDbLine
 10
1141.190656504923
 20
150.9566390611771
 30
0.0
 11
1141.190656504923
 21
150.9566390611771
 31
0.0
  0
REGION
  5
77CC
330
5F6E
100
AcDbEntity
  8
0
100
AcDbModelerGeometry
 70
     1
  1
koo nn n o          
  1
ni ^ *+0;:,4 ^ *+0\^ [ nh ^ LR nmqoqnqgmo QK o  
  1
mjqlffffffffffffff fqfffffffffffffffj:rooh n:rono 
  1
=0;& {rn {n {rn {rn |
  1
3*2/ {rn {rn {m {o |
  1
,7:33 {rn {rn {rn {l {rn {n |
  1
9><: {rn {rn {k {m {rn {j 90-(>-; ;0*=3: 0*+ |
  1
300/ {rn {rn {i {l |
  1
/3>1:r,*-9><: {rn nnkiqnfnnlgimffmif njmqjknokkgigjhhom o o o n roqolflhoooooooooooom o o -:):-,:@) V V V V |
  1
<0:;8: {rn {i {i {rn {h -:):-,:; {k {rn |
  1
:;8: {rn {g {g {i {f 90-(>-; |
  1
):-+:' {rn {h {no |
  1
:336/,:r<*-): {rn nnkiqnfnnlgimffmif njmqjknokkgigjhhom o ro ro rn rmqmglkiooooooooool o o n V V |
  1
/061+ {rn nnklqfohihgimffmog njmqjknokkgigjhhom o |
  0
CIRCLE
  5
77CD
330
5F6E
100
AcDbEntity
  8
细实线
100
AcDbCircle
 10
1146.191138629927
 20
152.541044868577
 30
0.0
 40
2.16535
  0
CIRCLE
  5
77CE
330
5F6E
100
AcDbEntity
  8
0
100
AcDbCircle
 10
1146.191138629927
 20
152.541044868577
 30
0.0
 40
1.791335
  0
LINE
  5
77CF
330
5F6E
100
AcDbEntity
  8
0
100
AcDbLine
 10
1141.191148629915
 20
156.6748948685608
 30
0.0
 11
1141.191148629915
 21
141.4623268685727
 31
0.0
  0
ARC
  5
77D0
330
5F6E
100
AcDbEntity
  8
0
100
AcDbCircle
 10
1141.584848629931
 20
141.4623268685727
 30
0.0
 40
0.3937
100
AcDbArc
 50
180.0
 51
270.0
  0
ARC
  5
77D1
330
5F6E
100
AcDbEntity
  8
0
100
AcDbCircle
 10
1141.584848629931
 20
156.6748948685608
 30
0.0
 40
0.3937
100
AcDbArc
 50
90.0
 51
180.0
  0
LINE
  5
77D2
330
5F6E
100
AcDbEntity
  8
0
100
AcDbLine
 10
1151.191128629938
 20
156.6748948685608
 30
0.0
 11
1151.191128629938
 21
141.4623268685727
 31
0.0
  0
ARC
  5
77D3
330
5F6E
100
AcDbEntity
  8
0
100
AcDbCircle
 10
1150.797428629923
 20
141.4623268685727
 30
0.0
 40
0.3937
100
AcDbArc
 50
270.0
 51
0.000000000000007
  0
LINE
  5
77D4
330
5F6E
100
AcDbEntity
  8
0
100
AcDbLine
 10
1140.191150629931
 20
157.2210186926722
 30
0.0
 11
1140.191150629931
 21
140.9162030444613
 31
0.0
  0
ARC
  5
77D5
330
5F6E
100
AcDbEntity
  8
0
100
AcDbCircle
 10
1140.269890629928
 20
140.9162030444613
 30
0.0
 40
0.07874
100
AcDbArc
 50
180.0
 51
224.9999999999975
  0
LINE
  5
77D6
330
5F6E
100
AcDbEntity
  8
0
100
AcDbLine
 10
1140.983047217867
 20
140.0916912806178
 30
0.0
 11
1140.214213041976
 21
140.860525456509
 31
0.0
  0
ARC
  5
77D7
330
5F6E
100
AcDbEntity
  8
0
100
AcDbCircle
 10
1141.038724805819
 20
140.14736886857
 30
0.0
 40
0.07874
100
AcDbArc
 50
224.9999999999975
 51
270.0
  0
LINE
  5
77D8
330
5F6E
100
AcDbEntity
  8
0
100
AcDbLine
 10
1140.983047217867
 20
158.0455304565157
 30
0.0
 11
1140.214213041976
 21
157.2766962806244
 31
0.0
  0
ARC
  5
77D9
330
5F6E
100
AcDbEntity
  8
0
100
AcDbCircle
 10
1140.269890629928
 20
157.2210186926722
 30
0.0
 40
0.07874
100
AcDbArc
 50
135.0000000000025
 51
180.0
  0
LINE
  5
77DA
330
5F6E
100
AcDbEntity
  8
0
100
AcDbLine
 10
1152.191618754915
 20
176.8214766457615
 30
0.0
 11
1152.191126629922
 21
176.8214766457615
 31
0.0
  0
LINE
  5
77DB
330
5F6E
100
AcDbEntity
  8
0
100
AcDbLine
 10
1172.191086629938
 20
176.8214766457615
 30
0.0
 11
1171.309198629935
 21
176.8214766457615
 31
0.0
  0
LINE
  5
77DC
330
5F6E
100
AcDbEntity
  8
虚线
 48
5.0
100
AcDbLine
 10
1171.191088629924
 20
176.7033666457803
 30
0.0
 11
1171.191088629924
 21
168.2808113900476
 31
0.0
  0
LINE
  5
77DD
330
5F6E
100
AcDbEntity
  8
虚线
 48
5.0
100
AcDbLine
 10
1152.191126629922
 20
168.2808113900476
 30
0.0
 11
1152.191126629922
 21
176.7033666457803
 31
0.0
  0
ARC
  5
77DE
330
5F6E
100
AcDbEntity
  8
虚线
 48
5.0
100
AcDbCircle
 10
1152.584826629938
 20
168.2808113900476
 30
0.0
 40
0.3937
100
AcDbArc
 50
180.0
 51
268.9448516038491
  0
LINE
  5
77DF
330
5F6E
100
AcDbEntity
  8
0
100
AcDbLine
 10
1152.073016629941
 20
176.8214766457615
 30
0.0
 11
1151.309238629919
 21
176.8214766457615
 31
0.0
  0
LINE
  5
77E0
330
5F6E
100
AcDbEntity
  8
虚线
 48
5.0
100
AcDbLine
 10
1163.97456762993
 20
167.7627270467576
 30
0.0
 11
1159.407647629917
 21
167.7627270467576
 31
0.0
  0
LINE
  5
77E1
330
5F6E
100
AcDbEntity
  8
中心线
 48
2.0
100
AcDbLine
 10
1161.691107629923
 20
166.0911537692239
 30
0.0
 11
1161.691107629923
 21
169.4343003242914
 31
0.0
  0
ARC
  5
77E2
330
5F6E
100
AcDbEntity
  8
虚线
 48
5.0
100
AcDbCircle
 10
1164.047563624315
 20
167.6446170467764
 30
0.0
 40
0.11811
100
AcDbArc
 50
90.0
 51
153.4349489176262
  0
ARC
  5
77E3
330
5F6E
100
AcDbEntity
  8
虚线
 48
5.0
100
AcDbCircle
 10
1159.334651635532
 20
167.6446170467764
 30
0.0
 40
0.11811
100
AcDbArc
 50
26.56505132846819
 51
90.0
  0
ARC
  5
77E4
330
5F6E
100
AcDbEntity
  8
虚线
 48
5.0
100
AcDbCircle
 10
1163.819959632741
 20
167.5855620467566
 30
0.0
 40
0.059055
100
AcDbArc
 50
270.0000000416882
 51
333.4349483493795
  0
ARC
  5
77E5
330
5F6E
100
AcDbEntity
  8
虚线
 48
5.0
100
AcDbCircle
 10
1159.562255627135
 20
167.5855620467566
 30
0.0
 40
0.059055
100
AcDbArc
 50
206.5650522188784
 51
269.9999999583118
  0
LINE
  5
77E6
330
5F6E
100
AcDbEntity
  8
虚线
 48
5.0
100
AcDbLine
 10
1159.509435229361
 20
167.5591518478989
 30
0.0
 11
1159.44029243105
 21
167.6974374445501
 31
0.0
  0
LINE
  5
77E7
330
5F6E
100
AcDbEntity
  8
虚线
 48
5.0
100
AcDbLine
 10
1163.819959632741
 20
167.526507046766
 30
0.0
 11
1163.462757629933
 21
167.526507046766
 31
0.0
  0
LINE
  5
77E8
330
5F6E
100
AcDbEntity
  8
虚线
 48
5.0
100
AcDbLine
 10
1159.919457629914
 20
167.4674520467754
 30
0.0
 11
1159.919457629943
 21
167.526507046766
 31
0.0
  0
LINE
  5
77E9
330
5F6E
100
AcDbEntity
  8
虚线
 48
5.0
100
AcDbLine
 10
1163.872780030485
 20
167.5591518478989
 30
0.0
 11
1163.941922828797
 21
167.6974374445501
 31
0.0
  0
LINE
  5
77EA
330
5F6E
100
AcDbEntity
  8
虚线
 48
5.0
100
AcDbLine
 10
1163.462757629933
 20
167.4674520467754
 30
0.0
 11
1163.462757629933
 21
167.526507046766
 31
0.0
  0
LINE
  5
77EB
330
5F6E
100
AcDbEntity
  8
虚线
 48
5.0
100
AcDbLine
 10
1159.919457629943
 20
167.526507046766
 30
0.0
 11
1159.562255627135
 21
167.526507046766
 31
0.0
  0
LINE
  5
77EC
330
5F6E
100
AcDbEntity
  8
虚线
 48
5.0
100
AcDbLine
 10
1163.462757629933
 20
167.526507046766
 30
0.0
 11
1159.919457629943
 21
167.526507046766
 31
0.0
  0
LINE
  5
77ED
330
5F6E
100
AcDbEntity
  8
0
100
AcDbLine
 10
1163.92560042823
 20
167.532741649012
 30
0.0
 11
1163.99474322657
 21
167.6710272456633
 31
0.0
  0
ARC
  5
77EE
330
5F6E
100
AcDbEntity
  8
0
100
AcDbCircle
 10
1164.047563624315
 20
167.6446170467764
 30
0.0
 40
0.059055
100
AcDbArc
 50
90.0
 51
153.4349489176262
  0
ARC
  5
77EF
330
5F6E
100
AcDbEntity
  8
0
100
AcDbCircle
 10
1163.819959632741
 20
167.5855620467566
 30
0.0
 40
0.11811
100
AcDbArc
 50
270.0000000416882
 51
333.4349483493795
  0
LINE
  5
77F0
330
5F6E
100
AcDbEntity
  8
0
100
AcDbLine
 10
1163.819959632741
 20
167.4674520467754
 30
0.0
 11
1163.462757629933
 21
167.4674520467754
 31
0.0
  0
LINE
  5
77F1
330
5F6E
100
AcDbEntity
  8
0
  6
Continuous
100
AcDbLine
 10
1163.462757629933
 20
167.4674520467754
 30
0.0
 11
1159.919457629943
 21
167.4674520467754
 31
0.0
  0
LINE
  5
77F2
330
5F6E
100
AcDbEntity
  8
0
100
AcDbLine
 10
1159.919457629914
 20
167.4674520467754
 30
0.0
 11
1159.562255627135
 21
167.4674520467754
 31
0.0
  0
ARC
  5
77F3
330
5F6E
100
AcDbEntity
  8
0
100
AcDbCircle
 10
1159.562255627135
 20
167.5855620467566
 30
0.0
 40
0.11811
100
AcDbArc
 50
206.5650522188784
 51
269.9999999583118
  0
LINE
  5
77F4
330
5F6E
100
AcDbEntity
  8
0
100
AcDbLine
 10
1159.456614831617
 20
167.532741649012
 30
0.0
 11
1159.387472033277
 21
167.6710272456633
 31
0.0
  0
ARC
  5
77F5
330
5F6E
100
AcDbEntity
  8
0
100
AcDbCircle
 10
1159.334651635532
 20
167.6446170467764
 30
0.0
 40
0.059055
100
AcDbArc
 50
26.56505132846819
 51
90.0
  0
LINE
  5
77F6
330
5F6E
100
AcDbEntity
  8
0
100
AcDbLine
 10
1152.132071629932
 20
168.2800486702411
 30
0.0
 11
1152.132071629932
 21
176.7033666457803
 31
0.0
  0
ARC
  5
77F7
330
5F6E
100
AcDbEntity
  8
0
100
AcDbCircle
 10
1152.584826629938
 20
168.2800486702411
 30
0.0
 40
0.452755
100
AcDbArc
 50
180.0
 51
268.9514006610844
  0
LINE
  5
77F8
330
5F6E
100
AcDbEntity
  8
0
100
AcDbLine
 10
1152.073016629941
 20
176.7624216457709
 30
0.0
 11
1151.309238629919
 21
176.7624216457709
 31
0.0
  0
LINE
  5
77F9
330
5F6E
100
AcDbEntity
  8
0
100
AcDbLine
 10
1172.191086629938
 20
176.7624216457709
 30
0.0
 11
1171.309198629935
 21
176.7624216457709
 31
0.0
  0
LINE
  5
77FA
330
5F6E
100
AcDbEntity
  8
0
100
AcDbLine
 10
1171.250143629915
 20
176.7033666457803
 30
0.0
 11
1171.250143629944
 21
168.2800486702411
 31
0.0
  0
LINE
  5
77FB
330
5F6E
100
AcDbEntity
  8
0
100
AcDbLine
 10
1172.191086629938
 20
176.8214766457615
 30
0.0
 11
1172.191086629938
 21
176.7624216457709
 31
0.0
  0
ARC
  5
77FC
330
5F6E
100
AcDbEntity
  8
虚线
 48
5.0
100
AcDbCircle
 10
1171.309198629935
 20
176.7033666457803
 30
0.0
 40
0.11811
100
AcDbArc
 50
90.0
 51
180.0
  0
ARC
  5
77FD
330
5F6E
100
AcDbEntity
  8
虚线
 48
5.0
100
AcDbCircle
 10
1152.073016629941
 20
176.7033666457803
 30
0.0
 40
0.11811
100
AcDbArc
 50
0.000000000000007
 51
90.0
  0
ARC
  5
77FE
330
5F6E
100
AcDbEntity
  8
0
100
AcDbCircle
 10
1152.073016629941
 20
176.7033666457803
 30
0.0
 40
0.059055
100
AcDbArc
 50
0.000000000000007
 51
90.0
  0
ARC
  5
77FF
330
5F6E
100
AcDbEntity
  8
0
100
AcDbCircle
 10
1171.309198629935
 20
176.7033666457803
 30
0.0
 40
0.059055
100
AcDbArc
 50
90.0
 51
180.0
  0
LINE
  5
7800
330
5F6E
100
AcDbEntity
  8
虚线
 48
5.0
100
AcDbLine
 10
1152.577576733901
 20
167.8871781483115
 30
0.0
 11
1159.334651635532
 21
167.7627270467576
 31
0.0
  0
LINE
  5
7801
330
5F6E
100
AcDbEntity
  8
0
100
AcDbLine
 10
1152.576540991993
 20
167.8273694922038
 30
0.0
 11
1159.334651635532
 21
167.703672046767
 31
0.0
  0
LINE
  5
7802
330
5F6E
100
AcDbEntity
  8
虚线
 48
5.0
100
AcDbLine
 10
1151.191128629938
 20
176.7033666457512
 30
0.0
 11
1151.191128629938
 21
169.2977296317633
 31
0.0
  0
LINE
  5
7803
330
5F6E
100
AcDbEntity
  8
0
100
AcDbLine
 10
1151.250183629928
 20
176.7033666457512
 30
0.0
 11
1151.250183629928
 21
169.296869489853
 31
0.0
  0
ARC
  5
7804
330
5F6E
100
AcDbEntity
  8
虚线
 48
5.0
100
AcDbCircle
 10
1151.309238629919
 20
176.7033666457512
 30
0.0
 40
0.11811
100
AcDbArc
 50
90.0
 51
180.0
  0
ARC
  5
7805
330
5F6E
100
AcDbEntity
  8
0
100
AcDbCircle
 10
1151.309238629919
 20
176.7033666457512
 30
0.0
 40
0.059055
100
AcDbArc
 50
90.0
 51
180.0
  0
LINE
  5
7806
330
5F6E
100
AcDbEntity
  8
0
100
AcDbLine
 10
1151.309238629919
 20
176.8214766457615
 30
0.0
 11
1141.073038629934
 21
176.8214766457615
 31
0.0
  0
LINE
  5
7807
330
5F6E
100
AcDbEntity
  8
0
100
AcDbLine
 10
1140.191150629931
 20
176.8214766457615
 30
0.0
 11
1141.073038629934
 21
176.8214766457615
 31
0.0
  0
LINE
  5
7808
330
5F6E
100
AcDbEntity
  8
虚线
 48
5.0
100
AcDbLine
 10
1141.191148629915
 20
176.7033666457803
 30
0.0
 11
1141.191148629915
 21
169.2977296317633
 31
0.0
  0
ARC
  5
7809
330
5F6E
100
AcDbEntity
  8
虚线
 48
5.0
100
AcDbCircle
 10
1141.584848629931
 20
169.2977296317633
 30
0.0
 40
0.3937
100
AcDbArc
 50
180.0
 51
266.4256288702043
  0
LINE
  5
780A
330
5F6E
100
AcDbEntity
  8
虚线
 48
5.0
100
AcDbLine
 10
1141.560303762564
 20
168.9047954903447
 30
0.0
 11
1143.834682635535
 21
168.7627250467715
 31
0.0
  0
LINE
  5
780B
330
5F6E
100
AcDbEntity
  8
虚线
 48
5.0
100
AcDbLine
 10
1148.547594102399
 20
168.7627250467715
 30
0.0
 11
1143.834682635535
 21
168.7627250467715
 31
0.0
  0
LINE
  5
780C
330
5F6E
100
AcDbEntity
  8
中心线
 48
2.0
100
AcDbLine
 10
1146.191138629927
 20
167.0911517692377
 30
0.0
 11
1146.191138629927
 21
170.4342983243052
 31
0.0
  0
ARC
  5
780D
330
5F6E
100
AcDbEntity
  8
虚线
 48
5.0
100
AcDbCircle
 10
1143.834682635535
 20
168.6446150467611
 30
0.0
 40
0.11811
100
AcDbArc
 50
26.5650510823738
 51
90.0
  0
ARC
  5
780E
330
5F6E
100
AcDbEntity
  8
虚线
 48
5.0
100
AcDbCircle
 10
1148.547594624318
 20
168.6446150467611
 30
0.0
 40
0.11811
100
AcDbArc
 50
90.0
 51
153.4349486715318
  0
ARC
  5
780F
330
5F6E
100
AcDbEntity
  8
虚线
 48
5.0
100
AcDbCircle
 10
1144.062286627138
 20
168.5855600467705
 30
0.0
 40
0.059055
100
AcDbArc
 50
206.5650516506206
 51
269.9999999583118
  0
ARC
  5
7810
330
5F6E
100
AcDbEntity
  8
虚线
 48
5.0
100
AcDbCircle
 10
1148.319990632715
 20
168.5855600467705
 30
0.0
 40
0.059055
100
AcDbArc
 50
270.0000000416882
 51
333.4349477811216
  0
LINE
  5
7811
330
5F6E
100
AcDbEntity
  8
虚线
 48
5.0
100
AcDbLine
 10
1148.372811030489
 20
168.5591498479127
 30
0.0
 11
1148.4419538288
 21
168.6974354445349
 31
0.0
  0
LINE
  5
7812
330
5F6E
100
AcDbEntity
  8
虚线
 48
5.0
100
AcDbLine
 10
1144.062286627138
 20
168.5265050467799
 30
0.0
 11
1144.419488629917
 21
168.5265050467799
 31
0.0
  0
LINE
  5
7813
330
5F6E
100
AcDbEntity
  8
虚线
 48
5.0
100
AcDbLine
 10
1147.962788629936
 20
168.4674500467602
 30
0.0
 11
1147.962788629936
 21
168.5265050467799
 31
0.0
  0
LINE
  5
7814
330
5F6E
100
AcDbEntity
  8
虚线
 48
5.0
100
AcDbLine
 10
1144.009466229364
 20
168.5591498479127
 30
0.0
 11
1143.940323431054
 21
168.6974354445349
 31
0.0
  0
LINE
  5
7815
330
5F6E
100
AcDbEntity
  8
虚线
 48
5.0
100
AcDbLine
 10
1144.419488629917
 20
168.4674500467602
 30
0.0
 11
1144.419488629917
 21
168.5265050467799
 31
0.0
  0
LINE
  5
7816
330
5F6E
100
AcDbEntity
  8
虚线
 48
5.0
100
AcDbLine
 10
1147.962788629936
 20
168.5265050467799
 30
0.0
 11
1148.319990632715
 21
168.5265050467799
 31
0.0
  0
LINE
  5
7817
330
5F6E
100
AcDbEntity
  8
虚线
 48
5.0
100
AcDbLine
 10
1144.419488629917
 20
168.5265050467799
 30
0.0
 11
1147.962788629936
 21
168.5265050467799
 31
0.0
  0
LINE
  5
7818
330
5F6E
100
AcDbEntity
  8
0
100
AcDbLine
 10
1143.95664583162
 20
168.5327396490259
 30
0.0
 11
1143.88750303328
 21
168.6710252456771
 31
0.0
  0
ARC
  5
7819
330
5F6E
100
AcDbEntity
  8
0
100
AcDbCircle
 10
1143.834682635535
 20
168.6446150467611
 30
0.0
 40
0.059055
100
AcDbArc
 50
26.5650510823738
 51
90.0
  0
LINE
  5
781A
330
5F6E
100
AcDbEntity
  8
0
100
AcDbLine
 10
1141.556814745135
 20
168.8449832305425
 30
0.0
 11
1143.834682635535
 21
168.7036700467809
 31
0.0
  0
ARC
  5
781B
330
5F6E
100
AcDbEntity
  8
0
100
AcDbCircle
 10
1144.062286627138
 20
168.5855600467705
 30
0.0
 40
0.11811
100
AcDbArc
 50
206.5650516506206
 51
269.9999999583118
  0
LINE
  5
781C
330
5F6E
100
AcDbEntity
  8
0
100
AcDbLine
 10
1144.062286627138
 20
168.4674500467602
 30
0.0
 11
1144.419488629917
 21
168.4674500467602
 31
0.0
  0
LINE
  5
781D
330
5F6E
100
AcDbEntity
  8
0
100
AcDbLine
 10
1144.419488629917
 20
168.4674500467602
 30
0.0
 11
1147.962788629936
 21
168.4674500467602
 31
0.0
  0
LINE
  5
781E
330
5F6E
100
AcDbEntity
  8
0
100
AcDbLine
 10
1147.962788629936
 20
168.4674500467602
 30
0.0
 11
1148.319990632715
 21
168.4674500467602
 31
0.0
  0
ARC
  5
781F
330
5F6E
100
AcDbEntity
  8
0
100
AcDbCircle
 10
1148.319990632715
 20
168.5855600467705
 30
0.0
 40
0.11811
100
AcDbArc
 50
270.0000000416882
 51
333.4349477811216
  0
LINE
  5
7820
330
5F6E
100
AcDbEntity
  8
0
100
AcDbLine
 10
1148.425631428233
 20
168.5327396490259
 30
0.0
 11
1148.494774226574
 21
168.6710252456771
 31
0.0
  0
ARC
  5
7821
330
5F6E
100
AcDbEntity
  8
0
100
AcDbCircle
 10
1148.547594624318
 20
168.6446150467611
 30
0.0
 40
0.059055
100
AcDbArc
 50
90.0
 51
153.4349486715318
  0
LINE
  5
7822
330
5F6E
100
AcDbEntity
  8
0
100
AcDbLine
 10
1140.191150629931
 20
176.7624216457709
 30
0.0
 11
1141.073038629934
 21
176.7624216457709
 31
0.0
  0
LINE
  5
7823
330
5F6E
100
AcDbEntity
  8
0
100
AcDbLine
 10
1141.132093629925
 20
176.7033666457803
 30
0.0
 11
1141.132093629925
 21
169.2968694898238
 31
0.0
  0
ARC
  5
7824
330
5F6E
100
AcDbEntity
  8
0
100
AcDbCircle
 10
1141.584848629931
 20
169.2968694898238
 30
0.0
 40
0.452755
100
AcDbArc
 50
180.0
 51
266.4500636894384
  0
LINE
  5
7825
330
5F6E
100
AcDbEntity
  8
0
100
AcDbLine
 10
1140.191150629931
 20
176.8214766457615
 30
0.0
 11
1140.191150629931
 21
176.7624216457709
 31
0.0
  0
ARC
  5
7826
330
5F6E
100
AcDbEntity
  8
虚线
 48
5.0
100
AcDbCircle
 10
1141.073038629934
 20
176.7033666457803
 30
0.0
 40
0.11811
100
AcDbArc
 50
0.000000000000007
 51
90.0
  0
ARC
  5
7827
330
5F6E
100
AcDbEntity
  8
0
100
AcDbCircle
 10
1141.073038629934
 20
176.7033666457803
 30
0.0
 40
0.059055
100
AcDbArc
 50
0.000000000000007
 51
90.0
  0
LINE
  5
7828
330
5F6E
100
AcDbEntity
  8
虚线
 48
5.0
100
AcDbLine
 10
1150.821973497289
 20
168.9047954903738
 30
0.0
 11
1148.547594624318
 21
168.7627250467715
 31
0.0
  0
ARC
  5
7829
330
5F6E
100
AcDbEntity
  8
虚线
 48
5.0
100
AcDbCircle
 10
1150.797428629923
 20
169.2977296317633
 30
0.0
 40
0.3937
100
AcDbArc
 50
273.5743711297957
 51
0.000000000000007
  0
LINE
  5
782A
330
5F6E
100
AcDbEntity
  8
0
100
AcDbLine
 10
1150.825462514718
 20
168.8449832305425
 30
0.0
 11
1148.547594624318
 21
168.7036700467809
 31
0.0
  0
ARC
  5
782B
330
5F6E
100
AcDbEntity
  8
0
100
AcDbCircle
 10
1150.797428629923
 20
169.296869489853
 30
0.0
 40
0.452755
100
AcDbArc
 50
273.5499363105617
 51
0.000000000000007
  0
LINE
  5
782C
330
5F6E
100
AcDbEntity
  8
0
100
AcDbLine
 10
1141.584848629931
 20
156.6748948685608
 30
0.0
 11
1144.491691144803
 21
154.0661900475288
 31
0.0
  0
LINE
  5
782D
330
5F6E
100
AcDbEntity
  8
0
100
AcDbLine
 10
1150.797428629923
 20
141.4623268685727
 30
0.0
 11
1147.067796125056
 21
150.4325712007603
 31
0.0
  0
LINE
  5
782E
330
5F6E
100
AcDbEntity
  8
0
100
AcDbLine
 10
1147.89058611505
 20
154.0661900475288
 30
0.0
 11
1150.797428629923
 21
156.6748948685608
 31
0.0
  0
LINE
  5
782F
330
5F6E
100
AcDbEntity
  8
0
100
AcDbLine
 10
1145.314481134797
 20
150.4325712007603
 30
0.0
 11
1141.584848629931
 21
141.4623268685727
 31
0.0
  0
LINE
  5
7830
330
5F6E
100
AcDbEntity
  8
虚线
 48
5.0
100
AcDbLine
 10
1170.804638525974
 20
167.8871781483115
 30
0.0
 11
1164.047563624315
 21
167.7627270467576
 31
0.0
  0
ARC
  5
7831
330
5F6E
100
AcDbEntity
  8
虚线
 48
5.0
100
AcDbCircle
 10
1170.797388629938
 20
168.2808113900476
 30
0.0
 40
0.3937
100
AcDbArc
 50
271.0551483961509
 51
0.000000000000007
  0
LINE
  5
7832
330
5F6E
100
AcDbEntity
  8
0
100
AcDbLine
 10
1170.805674267854
 20
167.8273694922038
 30
0.0
 11
1164.047563624315
 21
167.703672046767
 31
0.0
  0
ARC
  5
7833
330
5F6E
100
AcDbEntity
  8
0
100
AcDbCircle
 10
1170.797388629938
 20
168.2800486702411
 30
0.0
 40
0.452755
100
AcDbArc
 50
271.0485993389156
 51
0.000000000000007
  0
LINE
  5
7834
330
5F6E
100
AcDbEntity
  8
0
100
AcDbLine
 10
1171.309198629935
 20
176.7624216457709
 30
0.0
 11
1141.073038629934
 21
176.7624216457709
 31
0.0
  0
LINE
  5
7835
330
5F6E
100
AcDbEntity
  8
细实线
100
AcDbLine
 10
1148.547594624289
 20
168.7036700467809
 30
0.0
 11
1143.834682635535
 21
168.7036700467809
 31
0.0
  0
LINE
  5
7836
330
5F6E
100
AcDbEntity
  8
细实线
100
AcDbLine
 10
1164.047563624315
 20
167.703672046767
 30
0.0
 11
1159.334651635532
 21
167.703672046767
 31
0.0
  0
LINE
  5
7837
330
5F6E
100
AcDbEntity
  8
中心线
  6
Continuous
 62
     1
100
AcDbLine
 10
1170.797388629938
 20
110.340794361361
 30
0.0
 11
1141.584848629931
 21
110.340794361361
 31
0.0
  0
LINE
  5
7838
330
5F6E
100
AcDbEntity
  8
中心线
  6
Continuous
 62
     1
100
AcDbLine
 10
1141.584848629931
 20
126.4982423613446
 30
0.0
 11
1170.797388629909
 21
126.4982423613446
 31
0.0
  0
ARC
  5
7839
330
5F6E
100
AcDbEntity
  8
中心线
  6
Continuous
 62
     1
100
AcDbCircle
 10
1170.797388629909
 20
126.0258023613614
 30
0.0
 40
0.4724400000000001
100
AcDbArc
 50
0.000000000000007
 51
90.0
  0
LINE
  5
783A
330
5F6E
100
AcDbEntity
  8
中心线
  6
Continuous
 62
     1
100
AcDbLine
 10
1141.112408629918
 20
110.8132343613442
 30
0.0
 11
1141.112408629918
 21
126.0258023613614
 31
0.0
  0
ARC
  5
783B
330
5F6E
100
AcDbEntity
  8
中心线
  6
Continuous
 62
     1
100
AcDbCircle
 10
1141.584848629931
 20
126.0258023613614
 30
0.0
 40
0.4724400000000001
100
AcDbArc
 50
90.0
 51
180.0
  0
ARC
  5
783C
330
5F6E
100
AcDbEntity
  8
中心线
  6
Continuous
 62
     1
100
AcDbCircle
 10
1141.584848629931
 20
110.8132343613442
 30
0.0
 40
0.4724400000000001
100
AcDbArc
 50
180.0
 51
270.0
  0
LINE
  5
783D
330
5F6E
100
AcDbEntity
  8
中心线
  6
Continuous
 62
     1
100
AcDbLine
 10
1171.269828629921
 20
110.8132343613442
 30
0.0
 11
1171.269828629921
 21
126.0258023613614
 31
0.0
  0
ARC
  5
783E
330
5F6E
100
AcDbEntity
  8
中心线
  6
Continuous
 62
     1
100
AcDbCircle
 10
1170.797388629938
 20
110.8132343613442
 30
0.0
 40
0.4724400000000001
100
AcDbArc
 50
270.0
 51
0.000000000000007
  0
DIMENSION
  5
783F
330
5F6E
100
AcDbEntity
  8
标注
100
AcDbDimension
  2
*D61
 10
1152.191126629922
 20
138.0091985751556
 30
0.0
 11
1161.69110762993
 21
138.0091985751556
 31
0.0
 70
    32
 71
     5
 42
18.99996200001578
  3
副本STANDARD
100
AcDbAlignedDimension
 13
1171.191088629938
 23
141.4623268685727
 33
0.0
 14
1152.191126629922
 24
141.4623268685727
 34
0.0
 50
180.0
100
AcDbRotatedDimension
1001
ACAD
1000
DSTYLE
1002
{
1070
   345
1005
5F5E
1070
   346
1005
5F5E
1070
   347
1005
5F5E
1002
}
  0
DIMENSION
  5
7840
330
5F6E
100
AcDbEntity
  8
标注
100
AcDbDimension
  2
*D62
 10
1141.191148629915
 20
138.0091985751556
 30
0.0
 11
1146.191138629927
 21
138.0091985751556
 31
0.0
 70
    32
 71
     5
 42
9.999980000022787
  3
副本STANDARD
100
AcDbAlignedDimension
 13
1151.191128629938
 23
141.4623268685727
 33
0.0
 14
1141.191148629915
 24
141.4623268685727
 34
0.0
 50
180.0
100
AcDbRotatedDimension
1001
ACAD
1000
DSTYLE
1002
{
1070
   345
1005
5F5E
1070
   346
1005
5F5E
1070
   347
1005
5F5E
1002
}
  0
DIMENSION
  5
7841
330
5F6E
100
AcDbEntity
  8
标注
100
AcDbDimension
  2
*D63
 10
1140.191150629931
 20
136.1771036128273
 30
0.0
 11
1156.191118629934
 21
136.1771036128273
 31
0.0
 70
    32
 71
     5
 42
31.99993600000744
  3
副本STANDARD
100
AcDbAlignedDimension
 13
1172.191086629938
 23
140.9162030444613
 33
0.0
 14
1140.191150629931
 24
140.9162030444613
 34
0.0
 50
180.0
100
AcDbRotatedDimension
1001
ACAD
1000
DSTYLE
1002
{
1070
   345
1005
5F5E
1070
   346
1005
5F5E
1070
   347
1005
5F5E
1002
}
  0
DIMENSION
  5
7844
330
5F6E
100
AcDbEntity
  8
标注
100
AcDbDimension
  2
*D64
 10
1141.112408629918
 20
107.5928605476784
 30
0.0
 11
1156.19111862992
 21
107.5928605476784
 31
0.0
 70
    32
 71
     5
 42
30.15742000000341
  3
副本STANDARD
100
AcDbAlignedDimension
 13
1171.269828629921
 23
110.8132343613442
 33
0.0
 14
1141.112408629918
 24
110.8132343613442
 34
0.0
 50
180.0
100
AcDbRotatedDimension
1001
ACAD
1000
DSTYLE
1002
{
1070
   345
1005
5F5E
1070
   346
1005
5F5E
1070
   347
1005
5F5E
1002
}
  0
DIMENSION
  5
7846
330
5F6E
100
AcDbEntity
  8
标注
100
AcDbDimension
  2
*D66
 10
1138.231701101988
 20
168.8214766457616
 30
0.0
 11
1138.231701101988
 21
172.8214766457617
 31
0.0
 70
    32
 71
     5
 42
8.0
  3
副本STANDARD
100
AcDbAlignedDimension
 13
1140.191150629931
 23
176.8214766457615
 33
0.0
 14
1140.191150629931
 24
168.8214766457616
 34
0.0
 50
90.0
100
AcDbRotatedDimension
1001
ACAD
1000
DSTYLE
1002
{
1070
   345
1005
5F5E
1070
   346
1005
5F5E
1070
   347
1005
5F5E
1002
}
  0
DIMENSION
  5
7847
330
5F6E
100
AcDbEntity
  8
标注
100
AcDbDimension
  2
*D67
 10
1174.139014803826
 20
167.8214766457616
 30
0.0
 11
1174.139014803826
 21
172.3214766457617
 31
0.0
 70
    32
 71
     5
 42
9.0
  3
副本STANDARD
100
AcDbAlignedDimension
 13
1172.191086629938
 23
176.8214766457615
 33
0.0
 14
1172.191086629938
 24
167.8214766457616
 34
0.0
 50
90.0
100
AcDbRotatedDimension
1001
ACAD
1000
DSTYLE
1002
{
1070
   345
1005
5F5E
1070
   346
1005
5F5E
1070
   347
1005
5F5E
1002
}
  0
DIMENSION
  5
7848
330
5F6E
100
AcDbEntity
  8
标注
100
AcDbDimension
  2
*D68
 10
1170.797388629938
 20
110.8132343613444
 30
0.0
 11
1170.383609030592
 21
111.9147757660897
 31
0.0
 70
   164
 71
     5
 42
0.4724399999998923
  3
副本STANDARD
100
AcDbRadialDimension
 15
1171.062734220702
 25
110.4223491210726
 35
0.0
 40
0.0
1001
ACAD
1000
DSTYLE
1002
{
1070
   288
1070
     1
1070
   345
1005
5F5E
1070
   346
1005
5F5E
1070
   347
1005
5F5E
1002
}
1001
ACAD_DSTYLE_DIMRADIAL_EXTENSION
1070
   387
1070
     1
1070
   388
1040
3.141592653589793
1070
   390
1040
4.712388980384689
  0
DIMENSION
  5
7849
330
5F6E
100
AcDbEntity
  8
标注
100
AcDbDimension
  2
*D56
 10
1170.797388629938
 20
141.4623268685728
 30
0.0
 11
1170.177094204455
 21
142.5306366223589
 31
0.0
 70
   164
 71
     5
 42
0.3936999999997397
  3
副本STANDARD
100
AcDbRadialDimension
 15
1171.087964566846
 25
141.1966855410464
 35
0.0
 40
0.0
1001
ACAD
1000
DSTYLE
1002
{
1070
   288
1070
     1
1070
   345
1005
5F5E
1070
   346
1005
5F5E
1070
   347
1005
5F5E
1002
}
1001
ACAD_DSTYLE_DIMRADIAL_EXTENSION
1070
   387
1070
     1
1070
   388
1040
3.141592653589793
1070
   390
1040
4.712388980384689
  0
DIMENSION
  5
784A
330
5F6E
100
AcDbEntity
  8
标注
100
AcDbDimension
  2
*D57
 10
1170.797388629939
 20
168.2808113900473
 30
0.0
 11
1170.29050228792
 21
169.3984104150957
 31
0.0
 70
   164
 71
     5
 42
0.3936999999991713
  3
副本STANDARD
100
AcDbRadialDimension
 15
1171.029225466521
 25
167.9626111838832
 35
0.0
 40
0.0
1001
ACAD
1000
DSTYLE
1002
{
1070
   288
1070
     1
1070
   345
1005
5F5E
1070
   346
1005
5F5E
1070
   347
1005
5F5E
1002
}
1001
ACAD_DSTYLE_DIMRADIAL_EXTENSION
1070
   387
1070
     1
1070
   388
1040
3.141592653589793
1070
   390
1040
4.693973166774719
  0
DIMENSION
  5
784B
330
5F6E
100
AcDbEntity
  8
标注
100
AcDbDimension
  2
*D58
 10
1150.797428629923
 20
169.2977296317631
 30
0.0
 11
1150.282354125525
 21
170.4930410942527
 31
0.0
 70
   164
 71
     5
 42
0.3936999999999671
  3
副本STANDARD
100
AcDbRadialDimension
 15
1151.001787526718
 25
168.9612223787946
 35
0.0
 40
0.0
1001
ACAD
1000
DSTYLE
1002
{
1070
   288
1070
     1
1070
   345
1005
5F5E
1070
   346
1005
5F5E
1070
   347
1005
5F5E
1002
}
1001
ACAD_DSTYLE_DIMRADIAL_EXTENSION
1070
   387
1070
     1
1070
   388
1040
3.141592653589793
1070
   390
1040
4.650004435481524
  0
DIMENSION
  5
795B
330
5F6E
100
AcDbEntity
  8
标注
100
AcDbDimension
  2
*D69
 10
1173.494710047424
 20
126.4982423613877
 30
0.0
 11
1173.494710047424
 21
118.4195183613877
 31
0.0
 70
    32
 71
     5
 42
16.15744800000038
  3
副本STANDARD
100
AcDbAlignedDimension
 13
1170.797388629938
 23
110.3407943613873
 33
0.0
 14
1170.797388629909
 24
126.4982423613877
 34
0.0
 50
90.00000000010421
100
AcDbRotatedDimension
1001
ACAD
1000
DSTYLE
1002
{
1070
   345
1005
5F5E
1070
   346
1005
5F5E
1070
   347
1005
5F5E
1002
}
  0
DIMENSION
  5
7973
330
5F6E
100
AcDbEntity
  8
标注
100
AcDbDimension
  2
*D70
 10
1174.299850006428
 20
157.0685948685608
 30
0.0
 11
1174.299850006428
 21
149.0686108685669
 31
0.0
 70
    32
 71
     5
 42
15.99996799998808
  3
副本STANDARD
100
AcDbAlignedDimension
 13
1170.797388629909
 23
141.0686268685727
 33
0.0
 14
1170.797388629909
 24
157.0685948685608
 34
0.0
 50
90.0
100
AcDbRotatedDimension
1001
ACAD
1000
DSTYLE
1002
{
1070
   345
1005
5F5E
1070
   346
1005
5F5E
1070
   347
1005
5F5E
1002
}
  0
DIMENSION
  5
7974
330
5F6E
100
AcDbEntity
  8
标注
100
AcDbDimension
  2
*D71
 10
1176.157793485239
 20
158.0685928685606
 30
0.0
 11
1176.157793485239
 21
149.0686108685669
 31
0.0
 70
    32
 71
     5
 42
17.99996399998781
  3
副本STANDARD
100
AcDbAlignedDimension
 13
1171.191088629925
 23
140.0686288685728
 33
0.0
 14
1171.191088629925
 24
158.0685928685606
 34
0.0
 50
90.0
100
AcDbRotatedDimension
1001
ACAD
1000
DSTYLE
1002
{
1070
   345
1005
5F5E
1070
   346
1005
5F5E
1070
   347
1005
5F5E
1002
}
  0
TEXT
  5
79A3
330
5F6E
100
AcDbEntity
  8
标注
100
AcDbText
 10
1152.367306736949
 20
163.3714750935709
 30
0.0
 40
0.7874015748031497
  1
FRONT VIEW
100
AcDbText
  0
TEXT
  5
79A4
330
5F6E
100
AcDbEntity
  8
标注
100
AcDbText
 10
1150.837491030065
 20
132.7535920896917
 30
0.0
 40
0.7874015748031497
  1
OVERHEAD VIEW
100
AcDbText
  0
TEXT
  5
79A5
330
5F6E
100
AcDbEntity
  8
标注
100
AcDbText
 10
1157.750240977301
 20
103.0521507044198
 30
0.0
 40
0.7874015748031497
  1
 CUTOUT
100
AcDbText
  0
LINE
  5
79A6
330
5F6E
100
AcDbEntity
  8
中心线
  6
Continuous
 62
     1
100
AcDbLine
 10
1150.084834896735
 20
103.3053521717246
 30
0.0
 11
1156.301639900819
 21
103.3053521717246
 31
0.0
  0
ENDSEC
  0
SECTION
  2
OBJECTS
  0
DICTIONARY
  5
5F06
330
0
100
AcDbDictionary
281
     1
  3
ACAD_2007HEADERVARS_RT
350
79DD
  3
ACAD_COLOR
350
5F64
  3
ACAD_GROUP
350
5F07
  3
ACAD_LAYOUT
350
5F63
  3
ACAD_MATERIAL
350
5F0A
  3
ACAD_MLEADERSTYLE
350
5F67
  3
ACAD_MLINESTYLE
350
5F60
  3
ACAD_PLOTSETTINGS
350
5F62
  3
ACAD_PLOTSTYLENAME
350
5F08
  3
ACAD_SCALELIST
350
5F34
  3
ACAD_TABLESTYLE
350
5F65
  3
ACAD_VISUALSTYLE
350
5F23
  3
ACDB_RECOMPOSE_DATA
350
74C4
  3
AcDbVariableDictionary
350
6102
  3
DWGPROPS
350
79DC
  3
lxx_dict
350
60F2
  0
DICTIONARY
  5
61B7
330
5EFC
100
AcDbDictionary
280
     1
281
     1
  3
ACAD_LAYERSTATES
360
61B8
  0
DICTIONARY
  5
60F4
330
5F56
100
AcDbDictionary
280
     1
281
     1
  3
ADSK_XREC_LAYER_RECONCILED
360
60F5
  0
DICTIONARY
  5
60F6
330
5F72
100
AcDbDictionary
280
     1
281
     1
  3
ADSK_XREC_LAYER_RECONCILED
360
60F7
  0
DICTIONARY
  5
60F8
330
5F7D
100
AcDbDictionary
280
     1
281
     1
  3
ADSK_XREC_LAYER_RECONCILED
360
60F9
  0
DICTIONARY
  5
60FA
330
5F7E
100
AcDbDictionary
280
     1
281
     1
  3
ADSK_XREC_LAYER_RECONCILED
360
60FB
  0
DICTIONARY
  5
60FC
330
5F80
100
AcDbDictionary
280
     1
281
     1
  3
ADSK_XREC_LAYER_RECONCILED
360
60FD
  0
DICTIONARY
  5
61B2
330
61B1
100
AcDbDictionary
280
     1
281
     1
  0
DICTIONARY
  5
6B9D
330
6B9C
100
AcDbDictionary
280
     1
281
     1
  0
DICTIONARY
  5
654F
330
5F6E
100
AcDbDictionary
280
     1
281
     1
  3
ACAD_SORTENTS
360
6550
  0
DICTIONARY
  5
79E6
330
70B0
100
AcDbDictionary
280
     1
281
     1
  3
ACAD_MTEXT_RT
360
79E7
  0
DICTIONARY
  5
79DD
102
{ACAD_REACTORS
330
5F06
102
}
330
5F06
100
AcDbDictionary
281
     1
  3
DIMLTEX1
350
79DF
  3
DIMLTEX2
350
79E0
  3
DIMLTYPE
350
79DE
  0
DICTIONARY
  5
5F64
102
{ACAD_REACTORS
330
5F06
102
}
330
5F06
100
AcDbDictionary
281
     1
  0
DICTIONARY
  5
5F07
102
{ACAD_REACTORS
330
5F06
102
}
330
5F06
100
AcDbDictionary
281
     1
  0
DICTIONARY
  5
5F63
102
{ACAD_REACTORS
330
5F06
102
}
330
5F06
100
AcDbDictionary
281
     1
  3
Model
350
5F71
  3
布局1
350
5F6D
  0
DICTIONARY
  5
5F0A
102
{ACAD_REACTORS
330
5F06
102
}
330
5F06
100
AcDbDictionary
281
     1
  3
ByBlock
350
5F13
  3
ByLayer
350
5F0B
  3
Global
350
5F1B
  0
DICTIONARY
  5
5F67
102
{ACAD_REACTORS
330
5F06
102
}
330
5F06
100
AcDbDictionary
281
     1
  3
Standard
350
5F68
  0
DICTIONARY
  5
5F60
102
{ACAD_REACTORS
330
5F06
102
}
330
5F06
100
AcDbDictionary
281
     1
  3
Standard
350
5F61
  0
DICTIONARY
  5
5F62
102
{ACAD_REACTORS
330
5F06
102
}
330
5F06
100
AcDbDictionary
281
     1
  0
ACDBDICTIONARYWDFLT
  5
5F08
102
{ACAD_REACTORS
330
5F06
102
}
330
5F06
100
AcDbDictionary
281
     1
  3
Normal
350
5F09
100
AcDbDictionaryWithDefault
340
5F09
  0
DICTIONARY
  5
5F34
102
{ACAD_REACTORS
330
5F06
102
}
330
5F06
100
AcDbDictionary
281
     1
  3
A0
350
5F35
  3
A1
350
5F36
  3
A2
350
5F37
  3
A3
350
5F38
  3
A4
350
5F39
  3
A5
350
5F3A
  3
A6
350
5F3B
  3
A7
350
5F3C
  3
A8
350
5F3D
  3
A9
350
5F3E
  3
B0
350
5F3F
  3
B1
350
5F40
  3
B2
350
5F41
  3
B3
350
5F42
  3
B4
350
5F43
  3
B5
350
5F44
  3
B6
350
5F45
  3
B7
350
5F46
  3
B8
350
5F47
  3
B9
350
5F48
  3
C0
350
5F49
  3
C1
350
5F4A
  3
C2
350
5F4B
  3
C3
350
5F4C
  3
C4
350
5F4D
  3
C5
350
5F4E
  3
C6
350
5F4F
  3
C7
350
5F50
  3
C8
350
5F51
  3
C9
350
5F52
  3
D0
350
5F53
  3
D1
350
5F54
  3
D2
350
5F55
  0
DICTIONARY
  5
5F65
102
{ACAD_REACTORS
330
5F06
102
}
330
5F06
100
AcDbDictionary
281
     1
  3
Standard
350
5F66
  0
DICTIONARY
  5
5F23
102
{ACAD_REACTORS
330
5F06
102
}
330
5F06
100
AcDbDictionary
281
     1
  3
2dWireframe
350
5F29
  3
3D Hidden
350
5F2B
  3
3dWireframe
350
5F2A
  3
Basic
350
5F28
  3
Brighten
350
5F2F
  3
ColorChange
350
5F33
  3
Conceptual
350
5F2C
  3
Dim
350
5F2E
  3
Facepattern
350
5F32
  3
Flat
350
5F24
  3
FlatWithEdges
350
5F25
  3
Gouraud
350
5F26
  3
GouraudWithEdges
350
5F27
  3
Linepattern
350
5F31
  3
Realistic
350
5F2D
  3
Thicken
350
5F30
  0
XRECORD
  5
74C4
102
{ACAD_REACTORS
330
5F06
102
}
330
5F06
100
AcDbXrecord
280
     1
 90
        1
330
5F66
  0
DICTIONARY
  5
6102
102
{ACAD_REACTORS
330
5F06
102
}
330
5F06
100
AcDbDictionary
281
     1
  3
CANNOSCALE
350
6105
  3
CMLEADERSTYLE
350
6104
  3
CTABLESTYLE
350
6103
  3
DIMASSOC
350
6108
  3
INDEXCTL
350
6107
  3
SORTENTS
350
6106
  0
XRECORD
  5
79DC
102
{ACAD_REACTORS
330
5F06
102
}
330
5F06
100
AcDbXrecord
280
     1
  1
DWGPROPS COOKIE
  2

  3

  4

  6

  7

  8
Administrator
  9

300
=
301
=
302
=
303
=
304
=
305
=
306
=
307
=
308
=
309
=
 40
0.5799082407407408
 41
2455434.724808658
 42
2458564.688750486
  1

 90
        0
  0
DICTIONARY
  5
60F2
102
{ACAD_REACTORS
330
5F06
102
}
330
5F06
100
AcDbDictionary
281
     1
  3
lxx_dimth
350
60F3
  0
DICTIONARY
  5
61B8
102
{ACAD_REACTORS
330
61B7
102
}
330
61B7
100
AcDbDictionary
281
     1
  0
XRECORD
  5
60F5
102
{ACAD_REACTORS
330
60F4
102
}
330
60F4
100
AcDbXrecord
280
     1
290
     1
  0
XRECORD
  5
60F7
102
{ACAD_REACTORS
330
60F6
102
}
330
60F6
100
AcDbXrecord
280
     1
290
     1
  0
XRECORD
  5
60F9
102
{ACAD_REACTORS
330
60F8
102
}
330
60F8
100
AcDbXrecord
280
     1
290
     1
  0
XRECORD
  5
60FB
102
{ACAD_REACTORS
330
60FA
102
}
330
60FA
100
AcDbXrecord
280
     1
290
     1
  0
XRECORD
  5
60FD
102
{ACAD_REACTORS
330
60FC
102
}
330
60FC
100
AcDbXrecord
280
     1
290
     1
  0
SORTENTSTABLE
  5
6550
102
{ACAD_REACTORS
330
654F
102
}
330
654F
100
AcDbSortentsTable
330
5F6E
  0
XRECORD
  5
79E7
102
{ACAD_REACTORS
330
79E6
102
}
330
79E6
100
AcDbXrecord
280
     1
 40
5344.0
  1
\A1;86°
  0
XRECORD
  5
79DF
102
{ACAD_REACTORS
330
79DD
102
}
330
79DD
100
AcDbXrecord
280
     1
340
5F5E
  0
XRECORD
  5
79E0
102
{ACAD_REACTORS
330
79DD
102
}
330
79DD
100
AcDbXrecord
280
     1
340
5F5E
  0
XRECORD
  5
79DE
102
{ACAD_REACTORS
330
79DD
102
}
330
79DD
100
AcDbXrecord
280
     1
340
5F5E
  0
LAYOUT
  5
5F71
102
{ACAD_XDICTIONARY
360
79E4
102
}
102
{ACAD_REACTORS
330
5F63
102
}
330
5F63
100
AcDbPlotSettings
  1

  2
\\192.168.1.64\Canon LBP2900
  4
A4
  6

 40
5.873749732971191
 41
6.805061340332031
 42
5.873748779296875
 43
4.857757568359375
 44
209.9733276367187
 45
296.9259948730469
 46
0.0
 47
0.0
 48
0.0
 49
0.0
140
0.0
141
0.0
142
1.0
143
18.8066679312288
 70
 11952
 72
     0
 73
     1
 74
     0
  7

 75
     0
147
0.0531726302424622
148
-25731.24868592401
149
-1932.700854958878
100
AcDbLayout
  1
Model
 70
     1
 71
     0
 10
0.0
 20
0.0
 11
12.0
 21
9.0
 12
0.0
 22
0.0
 32
0.0
 14
0.0
 24
0.0
 34
0.0
 15
0.0
 25
0.0
 35
0.0
146
0.0
 13
0.0
 23
0.0
 33
0.0
 16
1.0
 26
0.0
 36
0.0
 17
0.0
 27
1.0
 37
0.0
 76
     0
330
5F6E
331
5F73
1001
ACAD_PSEXT
1000
\\192.168.1.64\Canon LBP2900
1000
Canon LBP2900
1000
\\192.168.1.64
1000

1070
     0
  0
LAYOUT
  5
5F6D
102
{ACAD_XDICTIONARY
360
79E2
102
}
102
{ACAD_REACTORS
330
5F63
102
}
330
5F63
100
AcDbPlotSettings
  1

  2
\\192.168.1.64\Canon LBP2900
  4

  6

 40
0.0
 41
0.0
 42
0.0
 43
0.0
 44
0.0
 45
0.0
 46
0.0
 47
0.0
 48
0.0
 49
0.0
140
0.0
141
0.0
142
1.0
143
1.0
 70
   688
 72
     0
 73
     0
 74
     5
  7

 75
    16
147
1.0
148
0.0
149
0.0
100
AcDbLayout
  1
布局1
 70
     1
 71
     1
 10
0.0
 20
0.0
 11
12.0
 21
9.0
 12
0.0
 22
0.0
 32
0.0
 14
1.000000000000000E+20
 24
1.000000000000000E+20
 34
1.000000000000000E+20
 15
-1.000000000000000E+20
 25
-1.000000000000000E+20
 35
-1.000000000000000E+20
146
0.0
 13
0.0
 23
0.0
 33
0.0
 16
1.0
 26
0.0
 36
0.0
 17
0.0
 27
1.0
 37
0.0
 76
     0
330
5F6A
  0
MATERIAL
  5
5F13
102
{ACAD_XDICTIONARY
360
5F14
102
}
102
{ACAD_REACTORS
330
5F0A
102
}
330
5F0A
100
AcDbMaterial
  1
ByBlock
 72
     0
 43
0.0208333333333333
 43
0.0
 43
0.0
 43
0.0
 43
0.0
 43
0.0208333333333333
 43
0.0
 43
0.0
 43
0.0
 43
0.0
 43
1.0
 43
0.0
 43
0.0
 43
0.0
 43
0.0
 43
1.0
 77
     0
 47
0.0208333333333333
 47
0.0
 47
0.0
 47
0.0
 47
0.0
 47
0.0208333333333333
 47
0.0
 47
0.0
 47
0.0
 47
0.0
 47
1.0
 47
0.0
 47
0.0
 47
0.0
 47
0.0
 47
1.0
171
     0
 49
0.0208333333333333
 49
0.0
 49
0.0
 49
0.0
 49
0.0
 49
0.0208333333333333
 49
0.0
 49
0.0
 49
0.0
 49
0.0
 49
1.0
 49
0.0
 49
0.0
 49
0.0
 49
0.0
 49
1.0
175
     0
142
0.0208333333333333
142
0.0
142
0.0
142
0.0
142
0.0
142
0.0208333333333333
142
0.0
142
0.0
142
0.0
142
0.0
142
1.0
142
0.0
142
0.0
142
0.0
142
0.0
142
1.0
179
     0
144
0.0208333333333333
144
0.0
144
0.0
144
0.0
144
0.0
144
0.0208333333333333
144
0.0
144
0.0
144
0.0
144
0.0
144
1.0
144
0.0
144
0.0
144
0.0
144
0.0
144
1.0
147
0.0208333333333333
147
0.0
147
0.0
147
0.0
147
0.0
147
0.0208333333333333
147
0.0
147
0.0
147
0.0
147
0.0
147
1.0
147
0.0
147
0.0
147
0.0
147
0.0
147
1.0
  0
MATERIAL
  5
5F0B
102
{ACAD_XDICTIONARY
360
5F0C
102
}
102
{ACAD_REACTORS
330
5F0A
102
}
330
5F0A
100
AcDbMaterial
  1
ByLayer
 72
     0
 43
0.0208333333333333
 43
0.0
 43
0.0
 43
0.0
 43
0.0
 43
0.0208333333333333
 43
0.0
 43
0.0
 43
0.0
 43
0.0
 43
1.0
 43
0.0
 43
0.0
 43
0.0
 43
0.0
 43
1.0
 77
     0
 47
0.0208333333333333
 47
0.0
 47
0.0
 47
0.0
 47
0.0
 47
0.0208333333333333
 47
0.0
 47
0.0
 47
0.0
 47
0.0
 47
1.0
 47
0.0
 47
0.0
 47
0.0
 47
0.0
 47
1.0
171
     0
 49
0.0208333333333333
 49
0.0
 49
0.0
 49
0.0
 49
0.0
 49
0.0208333333333333
 49
0.0
 49
0.0
 49
0.0
 49
0.0
 49
1.0
 49
0.0
 49
0.0
 49
0.0
 49
0.0
 49
1.0
175
     0
142
0.0208333333333333
142
0.0
142
0.0
142
0.0
142
0.0
142
0.0208333333333333
142
0.0
142
0.0
142
0.0
142
0.0
142
1.0
142
0.0
142
0.0
142
0.0
142
0.0
142
1.0
179
     0
144
0.0208333333333333
144
0.0
144
0.0
144
0.0
144
0.0
144
0.0208333333333333
144
0.0
144
0.0
144
0.0
144
0.0
144
1.0
144
0.0
144
0.0
144
0.0
144
0.0
144
1.0
147
0.0208333333333333
147
0.0
147
0.0
147
0.0
147
0.0
147
0.0208333333333333
147
0.0
147
0.0
147
0.0
147
0.0
147
1.0
147
0.0
147
0.0
147
0.0
147
0.0
147
1.0
  0
MATERIAL
  5
5F1B
102
{ACAD_XDICTIONARY
360
5F1C
102
}
102
{ACAD_REACTORS
330
5F0A
102
}
330
5F0A
100
AcDbMaterial
  1
Global
 72
     0
 43
0.0208333333333333
 43
0.0
 43
0.0
 43
0.0
 43
0.0
 43
0.0208333333333333
 43
0.0
 43
0.0
 43
0.0
 43
0.0
 43
1.0
 43
0.0
 43
0.0
 43
0.0
 43
0.0
 43
1.0
 77
     0
 47
0.0208333333333333
 47
0.0
 47
0.0
 47
0.0
 47
0.0
 47
0.0208333333333333
 47
0.0
 47
0.0
 47
0.0
 47
0.0
 47
1.0
 47
0.0
 47
0.0
 47
0.0
 47
0.0
 47
1.0
171
     0
 49
0.0208333333333333
 49
0.0
 49
0.0
 49
0.0
 49
0.0
 49
0.0208333333333333
 49
0.0
 49
0.0
 49
0.0
 49
0.0
 49
1.0
 49
0.0
 49
0.0
 49
0.0
 49
0.0
 49
1.0
175
     0
142
0.0208333333333333
142
0.0
142
0.0
142
0.0
142
0.0
142
0.0208333333333333
142
0.0
142
0.0
142
0.0
142
0.0
142
1.0
142
0.0
142
0.0
142
0.0
142
0.0
142
1.0
179
     0
144
0.0208333333333333
144
0.0
144
0.0
144
0.0
144
0.0
144
0.0208333333333333
144
0.0
144
0.0
144
0.0
144
0.0
144
1.0
144
0.0
144
0.0
144
0.0
144
0.0
144
1.0
147
0.0208333333333333
147
0.0
147
0.0
147
0.0
147
0.0
147
0.0208333333333333
147
0.0
147
0.0
147
0.0
147
0.0
147
1.0
147
0.0
147
0.0
147
0.0
147
0.0
147
1.0
  0
MLEADERSTYLE
  5
5F68
102
{ACAD_REACTORS
330
5F67
102
}
330
5F67
100
AcDbMLeaderStyle
170
     2
171
     1
172
     0
 90
        2
 40
0.0
 41
0.0
173
     1
 91
-1056964608
340
5F5C
 92
       -2
290
     1
 42
0.09
291
     1
 43
0.36
  3
Standard
 44
0.18
300

342
5F57
174
     1
178
     6
175
     1
176
     0
 93
-1056964608
 45
0.18
292
     0
297
     0
 46
0.18
 94
-1056964608
 47
1.0
 49
1.0
140
1.0
293
     1
141
0.0
294
     1
177
     0
142
1.0
295
     0
296
     0
143
0.125
1001
ACAD_MLEADERVER
1070
     2
  0
MLINESTYLE
  5
5F61
102
{ACAD_REACTORS
330
5F60
102
}
330
5F60
100
AcDbMlineStyle
  2
STANDARD
 70
     0
  3

 62
   256
 51
90.0
 52
90.0
 71
     2
 49
0.5
 62
   256
  6
BYLAYER
 49
-0.5
 62
   256
  6
BYLAYER
  0
ACDBPLACEHOLDER
  5
5F09
102
{ACAD_REACTORS
330
5F08
102
}
330
5F08
  0
SCALE
  5
5F35
102
{ACAD_REACTORS
330
5F34
102
}
330
5F34
100
AcDbScale
 70
     0
300
1:1
140
1.0
141
1.0
290
     1
  0
SCALE
  5
5F36
102
{ACAD_REACTORS
330
5F34
102
}
330
5F34
100
AcDbScale
 70
     0
300
1:2
140
1.0
141
2.0
290
     0
  0
SCALE
  5
5F37
102
{ACAD_REACTORS
330
5F34
102
}
330
5F34
100
AcDbScale
 70
     0
300
1:4
140
1.0
141
4.0
290
     0
  0
SCALE
  5
5F38
102
{ACAD_REACTORS
330
5F34
102
}
330
5F34
100
AcDbScale
 70
     0
300
1:5
140
1.0
141
5.0
290
     0
  0
SCALE
  5
5F39
102
{ACAD_REACTORS
330
5F34
102
}
330
5F34
100
AcDbScale
 70
     0
300
1:8
140
1.0
141
8.0
290
     0
  0
SCALE
  5
5F3A
102
{ACAD_REACTORS
330
5F34
102
}
330
5F34
100
AcDbScale
 70
     0
300
1:10
140
1.0
141
10.0
290
     0
  0
SCALE
  5
5F3B
102
{ACAD_REACTORS
330
5F34
102
}
330
5F34
100
AcDbScale
 70
     0
300
1:16
140
1.0
141
16.0
290
     0
  0
SCALE
  5
5F3C
102
{ACAD_REACTORS
330
5F34
102
}
330
5F34
100
AcDbScale
 70
     0
300
1:20
140
1.0
141
20.0
290
     0
  0
SCALE
  5
5F3D
102
{ACAD_REACTORS
330
5F34
102
}
330
5F34
100
AcDbScale
 70
     0
300
1:30
140
1.0
141
30.0
290
     0
  0
SCALE
  5
5F3E
102
{ACAD_REACTORS
330
5F34
102
}
330
5F34
100
AcDbScale
 70
     0
300
1:40
140
1.0
141
40.0
290
     0
  0
SCALE
  5
5F3F
102
{ACAD_REACTORS
330
5F34
102
}
330
5F34
100
AcDbScale
 70
     0
300
1:50
140
1.0
141
50.0
290
     0
  0
SCALE
  5
5F40
102
{ACAD_REACTORS
330
5F34
102
}
330
5F34
100
AcDbScale
 70
     0
300
1:100
140
1.0
141
100.0
290
     0
  0
SCALE
  5
5F41
102
{ACAD_REACTORS
330
5F34
102
}
330
5F34
100
AcDbScale
 70
     0
300
2:1
140
2.0
141
1.0
290
     0
  0
SCALE
  5
5F42
102
{ACAD_REACTORS
330
5F34
102
}
330
5F34
100
AcDbScale
 70
     0
300
4:1
140
4.0
141
1.0
290
     0
  0
SCALE
  5
5F43
102
{ACAD_REACTORS
330
5F34
102
}
330
5F34
100
AcDbScale
 70
     0
300
8:1
140
8.0
141
1.0
290
     0
  0
SCALE
  5
5F44
102
{ACAD_REACTORS
330
5F34
102
}
330
5F34
100
AcDbScale
 70
     0
300
10:1
140
10.0
141
1.0
290
     0
  0
SCALE
  5
5F45
102
{ACAD_REACTORS
330
5F34
102
}
330
5F34
100
AcDbScale
 70
     0
300
100:1
140
100.0
141
1.0
290
     0
  0
SCALE
  5
5F46
102
{ACAD_REACTORS
330
5F34
102
}
330
5F34
100
AcDbScale
 70
     0
300
1/128" = 1'-0"
140
0.0078125
141
12.0
290
     0
  0
SCALE
  5
5F47
102
{ACAD_REACTORS
330
5F34
102
}
330
5F34
100
AcDbScale
 70
     0
300
1/64" = 1'-0"
140
0.015625
141
12.0
290
     0
  0
SCALE
  5
5F48
102
{ACAD_REACTORS
330
5F34
102
}
330
5F34
100
AcDbScale
 70
     0
300
1/32" = 1'-0"
140
0.03125
141
12.0
290
     0
  0
SCALE
  5
5F49
102
{ACAD_REACTORS
330
5F34
102
}
330
5F34
100
AcDbScale
 70
     0
300
1/16" = 1'-0"
140
0.0625
141
12.0
290
     0
  0
SCALE
  5
5F4A
102
{ACAD_REACTORS
330
5F34
102
}
330
5F34
100
AcDbScale
 70
     0
300
3/32" = 1'-0"
140
0.09375
141
12.0
290
     0
  0
SCALE
  5
5F4B
102
{ACAD_REACTORS
330
5F34
102
}
330
5F34
100
AcDbScale
 70
     0
300
1/8" = 1'-0"
140
0.125
141
12.0
290
     0
  0
SCALE
  5
5F4C
102
{ACAD_REACTORS
330
5F34
102
}
330
5F34
100
AcDbScale
 70
     0
300
3/16" = 1'-0"
140
0.1875
141
12.0
290
     0
  0
SCALE
  5
5F4D
102
{ACAD_REACTORS
330
5F34
102
}
330
5F34
100
AcDbScale
 70
     0
300
1/4" = 1'-0"
140
0.25
141
12.0
290
     0
  0
SCALE
  5
5F4E
102
{ACAD_REACTORS
330
5F34
102
}
330
5F34
100
AcDbScale
 70
     0
300
3/8" = 1'-0"
140
0.375
141
12.0
290
     0
  0
SCALE
  5
5F4F
102
{ACAD_REACTORS
330
5F34
102
}
330
5F34
100
AcDbScale
 70
     0
300
1/2" = 1'-0"
140
0.5
141
12.0
290
     0
  0
SCALE
  5
5F50
102
{ACAD_REACTORS
330
5F34
102
}
330
5F34
100
AcDbScale
 70
     0
300
3/4" = 1'-0"
140
0.75
141
12.0
290
     0
  0
SCALE
  5
5F51
102
{ACAD_REACTORS
330
5F34
102
}
330
5F34
100
AcDbScale
 70
     0
300
1" = 1'-0"
140
1.0
141
12.0
290
     0
  0
SCALE
  5
5F52
102
{ACAD_REACTORS
330
5F34
102
}
330
5F34
100
AcDbScale
 70
     0
300
1-1/2" = 1'-0"
140
1.5
141
12.0
290
     0
  0
SCALE
  5
5F53
102
{ACAD_REACTORS
330
5F34
102
}
330
5F34
100
AcDbScale
 70
     0
300
3" = 1'-0"
140
3.0
141
12.0
290
     0
  0
SCALE
  5
5F54
102
{ACAD_REACTORS
330
5F34
102
}
330
5F34
100
AcDbScale
 70
     0
300
6" = 1'-0"
140
6.0
141
12.0
290
     0
  0
SCALE
  5
5F55
102
{ACAD_REACTORS
330
5F34
102
}
330
5F34
100
AcDbScale
 70
     0
300
1'-0" = 1'-0"
140
12.0
141
12.0
290
     0
  0
TABLESTYLE
  5
5F66
102
{ACAD_XDICTIONARY
360
74C2
102
}
102
{ACAD_REACTORS
330
5F65
102
}
330
5F65
100
AcDbTableStyle
  3
Standard
 70
     0
 71
     0
 40
0.06
 41
0.06
280
     0
281
     0
  7
STANDARD
140
0.18
170
     2
 62
     0
 63
     7
283
     0
274
    -2
284
     1
 64
     0
275
    -2
285
     1
 65
     0
276
    -2
286
     1
 66
     0
277
    -2
287
     1
 67
     0
278
    -2
288
     1
 68
     0
279
    -2
289
     1
 69
     0
  7
STANDARD
140
0.25
170
     5
 62
     0
 63
     7
283
     0
274
    -2
284
     1
 64
     0
275
    -2
285
     1
 65
     0
276
    -2
286
     1
 66
     0
277
    -2
287
     1
 67
     0
278
    -2
288
     1
 68
     0
279
    -2
289
     1
 69
     0
  7
STANDARD
140
0.18
170
     5
 62
     0
 63
     7
283
     0
274
    -2
284
     1
 64
     0
275
    -2
285
     1
 65
     0
276
    -2
286
     1
 66
     0
277
    -2
287
     1
 67
     0
278
    -2
288
     1
 68
     0
279
    -2
289
     1
 69
     0
  0
VISUALSTYLE
  5
5F29
102
{ACAD_REACTORS
330
5F23
102
}
330
5F23
100
AcDbVisualStyle
  2
2dWireframe
 70
     4
 71
     0
 72
     2
 73
     0
 90
        0
 40
-0.6
 41
-30.0
 62
     5
 63
     7
 74
     1
 91
        4
 64
     7
 65
   257
 75
     1
175
     1
 42
1.0
 92
        0
 66
   257
 43
1.0
 76
     1
 77
     6
 78
     2
 67
     7
 79
     5
170
     0
171
     0
290
     0
174
     0
 93
        1
 44
0.0
173
     0
291
     0
 45
0.0
1001
ACAD
1000
AcDbSavedByObjectVersion
1070
     0
1000
AcDbSavedByObjectVersion
1070
     0
1000
AcDbSavedByObjectVersion
1070
     0
  0
VISUALSTYLE
  5
5F2B
102
{ACAD_REACTORS
330
5F23
102
}
330
5F23
100
AcDbVisualStyle
  2
3D Hidden
 70
     6
 71
     1
 72
     2
 73
     2
 90
        0
 40
-0.6
 41
-30.0
 62
     5
 63
     7
 74
     2
 91
        2
 64
     7
 65
   257
 75
     2
175
     1
 42
40.0
 92
        0
 66
   257
 43
1.0
 76
     1
 77
     6
 78
     2
 67
     7
 79
     3
170
     0
171
     0
290
     0
174
     0
 93
        1
 44
0.0
173
     0
291
     0
 45
0.0
1001
ACAD
1000
AcDbSavedByObjectVersion
1070
     0
1000
AcDbSavedByObjectVersion
1070
     0
1000
AcDbSavedByObjectVersion
1070
     0
  0
VISUALSTYLE
  5
5F2A
102
{ACAD_REACTORS
330
5F23
102
}
330
5F23
100
AcDbVisualStyle
  2
3dWireframe
 70
     5
 71
     0
 72
     2
 73
     0
 90
        0
 40
-0.6
 41
-30.0
 62
     5
 63
     7
 74
     1
 91
        4
 64
     7
 65
   257
 75
     1
175
     1
 42
1.0
 92
        0
 66
   257
 43
1.0
 76
     1
 77
     6
 78
     2
 67
     7
 79
     5
170
     0
171
     0
290
     0
174
     0
 93
        1
 44
0.0
173
     0
291
     0
 45
0.0
1001
ACAD
1000
AcDbSavedByObjectVersion
1070
     0
1000
AcDbSavedByObjectVersion
1070
     0
1000
AcDbSavedByObjectVersion
1070
     0
  0
VISUALSTYLE
  5
5F28
102
{ACAD_REACTORS
330
5F23
102
}
330
5F23
100
AcDbVisualStyle
  2
Basic
 70
     7
 71
     1
 72
     0
 73
     1
 90
        0
 40
-0.6
 41
-30.0
 62
     5
 63
     7
 74
     0
 91
        4
 64
     7
 65
   257
 75
     1
175
     1
 42
1.0
 92
        8
 66
     7
 43
1.0
 76
     1
 77
     6
 78
     2
 67
     7
 79
     5
170
     0
171
     0
290
     0
174
     0
 93
        1
 44
0.0
173
     0
291
     1
 45
0.0
1001
ACAD
1000
AcDbSavedByObjectVersion
1070
     0
1000
AcDbSavedByObjectVersion
1070
     0
1000
AcDbSavedByObjectVersion
1070
     0
  0
VISUALSTYLE
  5
5F2F
102
{ACAD_REACTORS
330
5F23
102
}
330
5F23
100
AcDbVisualStyle
  2
Brighten
 70
    12
 71
     2
 72
     2
 73
     0
 90
        0
 40
-0.6
 41
-30.0
 62
     5
 63
     7
 74
     1
 91
        4
 64
     7
 65
   257
 75
     1
175
     1
 42
1.0
 92
        8
 66
     7
 43
1.0
 76
     1
 77
     6
 78
     2
 67
     7
 79
     5
170
     0
171
     0
290
     0
174
     0
 93
        1
 44
50.0
173
     0
291
     1
 45
0.0
1001
ACAD
1000
AcDbSavedByObjectVersion
1070
     0
1000
AcDbSavedByObjectVersion
1070
     0
1000
AcDbSavedByObjectVersion
1070
     0
  0
VISUALSTYLE
  5
5F33
102
{ACAD_REACTORS
330
5F23
102
}
330
5F23
100
AcDbVisualStyle
  2
ColorChange
 70
    16
 71
     2
 72
     2
 73
     3
 90
        0
 40
-0.6
 41
-30.0
 62
     5
 63
     8
 74
     1
 91
        4
 64
     7
 65
   257
 75
     1
175
     1
 42
1.0
 92
        8
 66
     8
 43
1.0
 76
     1
 77
     6
 78
     2
 67
     7
 79
     5
170
     0
171
     0
290
     0
174
     0
 93
        1
 44
0.0
173
     0
291
     1
 45
0.0
1001
ACAD
1000
AcDbSavedByObjectVersion
1070
     0
1000
AcDbSavedByObjectVersion
1070
     0
1000
AcDbSavedByObjectVersion
1070
     0
  0
VISUALSTYLE
  5
5F2C
102
{ACAD_REACTORS
330
5F23
102
}
330
5F23
100
AcDbVisualStyle
  2
Conceptual
 70
     9
 71
     3
 72
     2
 73
     0
 90
        0
 40
-0.6
 41
-30.0
 62
     5
 63
     7
 74
     2
 91
        2
 64
     7
 65
   257
 75
     1
175
     1
 42
40.0
 92
        8
 66
     7
 43
1.0
 76
     1
 77
     6
 78
     2
 67
     7
 79
     3
170
     0
171
     0
290
     0
174
     0
 93
        1
 44
0.0
173
     0
291
     0
 45
0.0
1001
ACAD
1000
AcDbSavedByObjectVersion
1070
     0
1000
AcDbSavedByObjectVersion
1070
     0
1000
AcDbSavedByObjectVersion
1070
     0
  0
VISUALSTYLE
  5
5F2E
102
{ACAD_REACTORS
330
5F23
102
}
330
5F23
100
AcDbVisualStyle
  2
Dim
 70
    11
 71
     2
 72
     2
 73
     0
 90
        0
 40
-0.6
 41
-30.0
 62
     5
 63
     7
 74
     1
 91
        4
 64
     7
 65
   257
 75
     1
175
     1
 42
1.0
 92
        8
 66
     7
 43
1.0
 76
     1
 77
     6
 78
     2
 67
     7
 79
     5
170
     0
171
     0
290
     0
174
     0
 93
        1
 44
-50.0
173
     0
291
     1
 45
0.0
1001
ACAD
1000
AcDbSavedByObjectVersion
1070
     0
1000
AcDbSavedByObjectVersion
1070
     0
1000
AcDbSavedByObjectVersion
1070
     0
  0
VISUALSTYLE
  5
5F32
102
{ACAD_REACTORS
330
5F23
102
}
330
5F23
100
AcDbVisualStyle
  2
Facepattern
 70
    15
 71
     2
 72
     2
 73
     0
 90
        0
 40
-0.6
 41
-30.0
 62
     5
 63
     7
 74
     1
 91
        4
 64
     7
 65
   257
 75
     1
175
     1
 42
1.0
 92
        8
 66
     7
 43
1.0
 76
     1
 77
     6
 78
     2
 67
     7
 79
     5
170
     0
171
     0
290
     0
174
     0
 93
        1
 44
0.0
173
     0
291
     1
 45
0.0
1001
ACAD
1000
AcDbSavedByObjectVersion
1070
     0
1000
AcDbSavedByObjectVersion
1070
     0
1000
AcDbSavedByObjectVersion
1070
     0
  0
VISUALSTYLE
  5
5F24
102
{ACAD_REACTORS
330
5F23
102
}
330
5F23
100
AcDbVisualStyle
  2
Flat
 70
     0
 71
     2
 72
     1
 73
     1
 90
        2
 40
-0.6
 41
30.0
 62
     5
 63
     7
 74
     0
 91
        4
 64
     7
 65
   257
 75
     1
175
     1
 42
1.0
 92
        8
 66
     7
 43
1.0
 76
     1
 77
     6
 78
     2
 67
     7
 79
     5
170
     0
171
     0
290
     0
174
     0
 93
       13
 44
0.0
173
     0
291
     1
 45
0.0
1001
ACAD
1000
AcDbSavedByObjectVersion
1070
     0
1000
AcDbSavedByObjectVersion
1070
     0
1000
AcDbSavedByObjectVersion
1070
     0
  0
VISUALSTYLE
  5
5F25
102
{ACAD_REACTORS
330
5F23
102
}
330
5F23
100
AcDbVisualStyle
  2
FlatWithEdges
 70
     1
 71
     2
 72
     1
 73
     1
 90
        2
 40
-0.6
 41
30.0
 62
     5
 63
     7
 74
     1
 91
        4
 64
     7
 65
   257
 75
     1
175
     1
 42
1.0
 92
        0
 66
   257
 43
1.0
 76
     1
 77
     6
 78
     2
 67
     7
 79
     5
170
     0
171
     0
290
     0
174
     0
 93
       13
 44
0.0
173
     0
291
     1
 45
0.0
1001
ACAD
1000
AcDbSavedByObjectVersion
1070
     0
1000
AcDbSavedByObjectVersion
1070
     0
1000
AcDbSavedByObjectVersion
1070
     0
  0
VISUALSTYLE
  5
5F26
102
{ACAD_REACTORS
330
5F23
102
}
330
5F23
100
AcDbVisualStyle
  2
Gouraud
 70
     2
 71
     2
 72
     2
 73
     1
 90
        2
 40
-0.6
 41
30.0
 62
     5
 63
     7
 74
     0
 91
        4
 64
     7
 65
   257
 75
     1
175
     1
 42
1.0
 92
        0
 66
     7
 43
1.0
 76
     1
 77
     6
 78
     2
 67
     7
 79
     5
170
     0
171
     0
290
     0
174
     0
 93
       13
 44
0.0
173
     0
291
     1
 45
0.0
1001
ACAD
1000
AcDbSavedByObjectVersion
1070
     0
1000
AcDbSavedByObjectVersion
1070
     0
1000
AcDbSavedByObjectVersion
1070
     0
  0
VISUALSTYLE
  5
5F27
102
{ACAD_REACTORS
330
5F23
102
}
330
5F23
100
AcDbVisualStyle
  2
GouraudWithEdges
 70
     3
 71
     2
 72
     2
 73
     1
 90
        2
 40
-0.6
 41
30.0
 62
     5
 63
     7
 74
     1
 91
        4
 64
     7
 65
   257
 75
     1
175
     1
 42
1.0
 92
        0
 66
   257
 43
1.0
 76
     1
 77
     6
 78
     2
 67
     7
 79
     5
170
     0
171
     0
290
     0
174
     0
 93
       13
 44
0.0
173
     0
291
     1
 45
0.0
1001
ACAD
1000
AcDbSavedByObjectVersion
1070
     0
1000
AcDbSavedByObjectVersion
1070
     0
1000
AcDbSavedByObjectVersion
1070
     0
  0
VISUALSTYLE
  5
5F31
102
{ACAD_REACTORS
330
5F23
102
}
330
5F23
100
AcDbVisualStyle
  2
Linepattern
 70
    14
 71
     2
 72
     2
 73
     0
 90
        0
 40
-0.6
 41
-30.0
 62
     5
 63
     7
 74
     1
 91
        4
 64
     7
 65
   257
 75
     7
175
     7
 42
1.0
 92
        8
 66
     7
 43
1.0
 76
     1
 77
     6
 78
     2
 67
     7
 79
     5
170
     0
171
     0
290
     0
174
     0
 93
        1
 44
0.0
173
     0
291
     1
 45
0.0
1001
ACAD
1000
AcDbSavedByObjectVersion
1070
     0
1000
AcDbSavedByObjectVersion
1070
     0
1000
AcDbSavedByObjectVersion
1070
     0
  0
VISUALSTYLE
  5
5F2D
102
{ACAD_REACTORS
330
5F23
102
}
330
5F23
100
AcDbVisualStyle
  2
Realistic
 70
     8
 71
     2
 72
     2
 73
     0
 90
        0
 40
-0.6
 41
-30.0
 62
     5
 63
     7
 74
     1
 91
        0
 64
     7
 65
   257
 75
     1
175
     1
 42
1.0
 92
        8
 66
     8
 43
1.0
 76
     1
 77
     6
 78
     2
 67
     7
 79
     5
170
     0
171
     0
290
     0
174
     0
 93
       13
 44
0.0
173
     0
291
     0
 45
0.0
1001
ACAD
1000
AcDbSavedByObjectVersion
1070
     0
1000
AcDbSavedByObjectVersion
1070
     0
1000
AcDbSavedByObjectVersion
1070
     0
  0
VISUALSTYLE
  5
5F30
102
{ACAD_REACTORS
330
5F23
102
}
330
5F23
100
AcDbVisualStyle
  2
Thicken
 70
    13
 71
     2
 72
     2
 73
     0
 90
        0
 40
-0.6
 41
-30.0
 62
     5
 63
     7
 74
     1
 91
        4
 64
     7
 65
   257
 75
     1
175
     1
 42
1.0
 92
       12
 66
     7
 43
1.0
 76
     1
 77
     6
 78
     2
 67
     7
 79
     5
170
     0
171
     0
290
     0
174
     0
 93
        1
 44
0.0
173
     0
291
     1
 45
0.0
1001
ACAD
1000
AcDbSavedByObjectVersion
1070
     0
1000
AcDbSavedByObjectVersion
1070
     0
1000
AcDbSavedByObjectVersion
1070
     0
  0
DICTIONARYVAR
  5
6105
102
{ACAD_REACTORS
330
6102
102
}
330
6102
100
DictionaryVariables
280
     0
  1
1:1
  0
DICTIONARYVAR
  5
6104
102
{ACAD_REACTORS
330
6102
102
}
330
6102
100
DictionaryVariables
280
     0
  1
STANDARD
  0
DICTIONARYVAR
  5
6103
102
{ACAD_REACTORS
330
6102
102
}
330
6102
100
DictionaryVariables
280
     0
  1
STANDARD
  0
DICTIONARYVAR
  5
6108
102
{ACAD_REACTORS
330
6102
102
}
330
6102
100
DictionaryVariables
280
     0
  1
1
  0
DICTIONARYVAR
  5
6107
102
{ACAD_REACTORS
330
6102
102
}
330
6102
100
DictionaryVariables
280
     0
  1
0
  0
DICTIONARYVAR
  5
6106
102
{ACAD_REACTORS
330
6102
102
}
330
6102
100
DictionaryVariables
280
     0
  1
127
  0
VLO-VL
  5
60F3
102
{ACAD_REACTORS
330
60F2
102
}
330
60F2
100
vlo_VL
 90
   -64512
 91
       12
 92
        1
 40
2.5
300
(&VLO-R . 0)
  0
DICTIONARY
  5
79E4
330
5F71
100
AcDbDictionary
280
     1
281
     1
  3
ACAD_XREC_ROUNDTRIP
360
79E5
  0
DICTIONARY
  5
79E2
330
5F6D
100
AcDbDictionary
280
     1
281
     1
  3
ACAD_XREC_ROUNDTRIP
360
79E3
  0
DICTIONARY
  5
5F14
330
5F13
100
AcDbDictionary
280
     1
281
     1
  3
ACAD_XREC_ROUNDTRIP
360
74C7
  3
BUMPTILE
360
5F16
  3
DIFFUSETILE
360
5F15
  3
OPACITYTILE
360
5F19
  3
REFLECTIONTILE
360
5F18
  3
REFRACTIONTILE
360
5F1A
  3
SPECULARTILE
360
5F17
  0
DICTIONARY
  5
5F0C
330
5F0B
100
AcDbDictionary
280
     1
281
     1
  3
ACAD_XREC_ROUNDTRIP
360
74C6
  3
BUMPTILE
360
5F0E
  3
DIFFUSETILE
360
5F0D
  3
OPACITYTILE
360
5F11
  3
REFLECTIONTILE
360
5F10
  3
REFRACTIONTILE
360
5F12
  3
SPECULARTILE
360
5F0F
  0
DICTIONARY
  5
5F1C
330
5F1B
100
AcDbDictionary
280
     1
281
     1
  3
ACAD_XREC_ROUNDTRIP
360
74C8
  3
BUMPTILE
360
5F1E
  3
DIFFUSETILE
360
5F1D
  3
OPACITYTILE
360
5F21
  3
REFLECTIONTILE
360
5F20
  3
REFRACTIONTILE
360
5F22
  3
SPECULARTILE
360
5F1F
  0
DICTIONARY
  5
74C2
330
5F66
100
AcDbDictionary
280
     1
281
     1
  3
ACAD_ROUNDTRIP_2008_TABLESTYLE_CELLSTYLEMAP
360
79DB
  3
ACAD_XREC_ROUNDTRIP
360
79E1
  0
XRECORD
  5
79E5
102
{ACAD_REACTORS
330
79E4
102
}
330
79E4
100
AcDbXrecord
280
     1
102
SHADEPLOT
 70
     0
102
SHADEPLOTRESLEVEL
 70
     2
102
SHADEPLOTCUSTOMDPI
 70
   300
  0
XRECORD
  5
79E3
102
{ACAD_REACTORS
330
79E2
102
}
330
79E2
100
AcDbXrecord
280
     1
102
SHADEPLOT
 70
     0
102
SHADEPLOTRESLEVEL
 70
     2
102
SHADEPLOTCUSTOMDPI
 70
   300
  0
XRECORD
  5
74C7
102
{ACAD_REACTORS
330
5F14
102
}
330
5F14
100
AcDbXrecord
280
     1
102
MATERIAL
148
0.0
149
0.0
149
0.0
 93
        0
 94
      127
282
     0
 72
     0
 77
     0
171
     0
175
     0
179
     0
273
     0
  0
XRECORD
  5
5F16
102
{ACAD_REACTORS
330
5F14
102
}
330
5F14
100
AcDbXrecord
280
     1
270
     1
271
     1
  0
XRECORD
  5
5F15
102
{ACAD_REACTORS
330
5F14
102
}
330
5F14
100
AcDbXrecord
280
     1
270
     1
271
     1
  0
XRECORD
  5
5F19
102
{ACAD_REACTORS
330
5F14
102
}
330
5F14
100
AcDbXrecord
280
     1
270
     1
271
     1
  0
XRECORD
  5
5F18
102
{ACAD_REACTORS
330
5F14
102
}
330
5F14
100
AcDbXrecord
280
     1
270
     1
271
     1
  0
XRECORD
  5
5F1A
102
{ACAD_REACTORS
330
5F14
102
}
330
5F14
100
AcDbXrecord
280
     1
270
     1
271
     1
  0
XRECORD
  5
5F17
102
{ACAD_REACTORS
330
5F14
102
}
330
5F14
100
AcDbXrecord
280
     1
270
     1
271
     1
  0
XRECORD
  5
74C6
102
{ACAD_REACTORS
330
5F0C
102
}
330
5F0C
100
AcDbXrecord
280
     1
102
MATERIAL
148
0.0
149
0.0
149
0.0
 93
        0
 94
      127
282
     0
 72
     0
 77
     0
171
     0
175
     0
179
     0
273
     0
  0
XRECORD
  5
5F0E
102
{ACAD_REACTORS
330
5F0C
102
}
330
5F0C
100
AcDbXrecord
280
     1
270
     1
271
     1
  0
XRECORD
  5
5F0D
102
{ACAD_REACTORS
330
5F0C
102
}
330
5F0C
100
AcDbXrecord
280
     1
270
     1
271
     1
  0
XRECORD
  5
5F11
102
{ACAD_REACTORS
330
5F0C
102
}
330
5F0C
100
AcDbXrecord
280
     1
270
     1
271
     1
  0
XRECORD
  5
5F10
102
{ACAD_REACTORS
330
5F0C
102
}
330
5F0C
100
AcDbXrecord
280
     1
270
     1
271
     1
  0
XRECORD
  5
5F12
102
{ACAD_REACTORS
330
5F0C
102
}
330
5F0C
100
AcDbXrecord
280
     1
270
     1
271
     1
  0
XRECORD
  5
5F0F
102
{ACAD_REACTORS
330
5F0C
102
}
330
5F0C
100
AcDbXrecord
280
     1
270
     1
271
     1
  0
XRECORD
  5
74C8
102
{ACAD_REACTORS
330
5F1C
102
}
330
5F1C
100
AcDbXrecord
280
     1
102
MATERIAL
148
0.0
149
0.0
149
0.0
 93
        0
 94
      127
282
     0
 72
     0
 77
     0
171
     0
175
     0
179
     0
273
     0
  0
XRECORD
  5
5F1E
102
{ACAD_REACTORS
330
5F1C
102
}
330
5F1C
100
AcDbXrecord
280
     1
270
     1
271
     1
  0
XRECORD
  5
5F1D
102
{ACAD_REACTORS
330
5F1C
102
}
330
5F1C
100
AcDbXrecord
280
     1
270
     1
271
     1
  0
XRECORD
  5
5F21
102
{ACAD_REACTORS
330
5F1C
102
}
330
5F1C
100
AcDbXrecord
280
     1
270
     1
271
     1
  0
XRECORD
  5
5F20
102
{ACAD_REACTORS
330
5F1C
102
}
330
5F1C
100
AcDbXrecord
280
     1
270
     1
271
     1
  0
XRECORD
  5
5F22
102
{ACAD_REACTORS
330
5F1C
102
}
330
5F1C
100
AcDbXrecord
280
     1
270
     1
271
     1
  0
XRECORD
  5
5F1F
102
{ACAD_REACTORS
330
5F1C
102
}
330
5F1C
100
AcDbXrecord
280
     1
270
     1
271
     1
  0
CELLSTYLEMAP
  5
79DB
102
{ACAD_REACTORS
330
74C2
102
}
330
74C2
100
AcDbCellStyleMap
 90
        3
300
CELLSTYLE
  1
TABLEFORMAT_BEGIN
 90
        5
170
     1
 91
        0
 92
    32768
 62
   257
 93
        1
300
CONTENTFORMAT
  1
CONTENTFORMAT_BEGIN
 90
        0
 91
        0
 92
      512
 93
        0
300

 40
0.0
140
1.0
 94
        5
 62
     0
340
5F57
144
0.25
309
CONTENTFORMAT_END
171
     1
301
MARGIN
  1
CELLMARGIN_BEGIN
 40
0.06
 40
0.06
 40
0.06
 40
0.06
 40
0.18
 40
0.18
309
CELLMARGIN_END
 94
        6
 95
        1
302
GRIDFORMAT
  1
GRIDFORMAT_BEGIN
 90
        0
 91
        1
 62
     0
 92
       -2
340
0
 93
        0
 40
0.045
309
GRIDFORMAT_END
 95
        2
302
GRIDFORMAT
  1
GRIDFORMAT_BEGIN
 90
        0
 91
        1
 62
     0
 92
       -2
340
0
 93
        0
 40
0.045
309
GRIDFORMAT_END
 95
        4
302
GRIDFORMAT
  1
GRIDFORMAT_BEGIN
 90
        0
 91
        1
 62
     0
 92
       -2
340
0
 93
        0
 40
0.045
309
GRIDFORMAT_END
 95
        8
302
GRIDFORMAT
  1
GRIDFORMAT_BEGIN
 90
        0
 91
        1
 62
     0
 92
       -2
340
0
 93
        0
 40
0.045
309
GRIDFORMAT_END
 95
       16
302
GRIDFORMAT
  1
GRIDFORMAT_BEGIN
 90
        0
 91
        1
 62
     0
 92
       -2
340
0
 93
        0
 40
0.045
309
GRIDFORMAT_END
 95
       32
302
GRIDFORMAT
  1
GRIDFORMAT_BEGIN
 90
        0
 91
        1
 62
     0
 92
       -2
340
0
 93
        0
 40
0.045
309
GRIDFORMAT_END
309
TABLEFORMAT_END
  1
CELLSTYLE_BEGIN
 90
        1
 91
        1
300
_TITLE
309
CELLSTYLE_END
300
CELLSTYLE
  1
TABLEFORMAT_BEGIN
 90
        5
170
     1
 91
        0
 92
        0
 62
   257
 93
        1
300
CONTENTFORMAT
  1
CONTENTFORMAT_BEGIN
 90
        0
 91
        0
 92
      512
 93
        0
300

 40
0.0
140
1.0
 94
        5
 62
     0
340
5F57
144
0.18
309
CONTENTFORMAT_END
171
     1
301
MARGIN
  1
CELLMARGIN_BEGIN
 40
0.06
 40
0.06
 40
0.06
 40
0.06
 40
0.18
 40
0.18
309
CELLMARGIN_END
 94
        6
 95
        1
302
GRIDFORMAT
  1
GRIDFORMAT_BEGIN
 90
        0
 91
        1
 62
     0
 92
       -2
340
0
 93
        0
 40
0.045
309
GRIDFORMAT_END
 95
        2
302
GRIDFORMAT
  1
GRIDFORMAT_BEGIN
 90
        0
 91
        1
 62
     0
 92
       -2
340
0
 93
        0
 40
0.045
309
GRIDFORMAT_END
 95
        4
302
GRIDFORMAT
  1
GRIDFORMAT_BEGIN
 90
        0
 91
        1
 62
     0
 92
       -2
340
0
 93
        0
 40
0.045
309
GRIDFORMAT_END
 95
        8
302
GRIDFORMAT
  1
GRIDFORMAT_BEGIN
 90
        0
 91
        1
 62
     0
 92
       -2
340
0
 93
        0
 40
0.045
309
GRIDFORMAT_END
 95
       16
302
GRIDFORMAT
  1
GRIDFORMAT_BEGIN
 90
        0
 91
        1
 62
     0
 92
       -2
340
0
 93
        0
 40
0.045
309
GRIDFORMAT_END
 95
       32
302
GRIDFORMAT
  1
GRIDFORMAT_BEGIN
 90
        0
 91
        1
 62
     0
 92
       -2
340
0
 93
        0
 40
0.045
309
GRIDFORMAT_END
309
TABLEFORMAT_END
  1
CELLSTYLE_BEGIN
 90
        2
 91
        1
300
_HEADER
309
CELLSTYLE_END
300
CELLSTYLE
  1
TABLEFORMAT_BEGIN
 90
        5
170
     1
 91
        0
 92
        0
 62
   257
 93
        1
300
CONTENTFORMAT
  1
CONTENTFORMAT_BEGIN
 90
        0
 91
        0
 92
      512
 93
        0
300

 40
0.0
140
1.0
 94
        2
 62
     0
340
5F57
144
0.18
309
CONTENTFORMAT_END
171
     1
301
MARGIN
  1
CELLMARGIN_BEGIN
 40
0.06
 40
0.06
 40
0.06
 40
0.06
 40
0.18
 40
0.18
309
CELLMARGIN_END
 94
        6
 95
        1
302
GRIDFORMAT
  1
GRIDFORMAT_BEGIN
 90
        0
 91
        1
 62
     0
 92
       -2
340
0
 93
        0
 40
0.045
309
GRIDFORMAT_END
 95
        2
302
GRIDFORMAT
  1
GRIDFORMAT_BEGIN
 90
        0
 91
        1
 62
     0
 92
       -2
340
0
 93
        0
 40
0.045
309
GRIDFORMAT_END
 95
        4
302
GRIDFORMAT
  1
GRIDFORMAT_BEGIN
 90
        0
 91
        1
 62
     0
 92
       -2
340
0
 93
        0
 40
0.045
309
GRIDFORMAT_END
 95
        8
302
GRIDFORMAT
  1
GRIDFORMAT_BEGIN
 90
        0
 91
        1
 62
     0
 92
       -2
340
0
 93
        0
 40
0.045
309
GRIDFORMAT_END
 95
       16
302
GRIDFORMAT
  1
GRIDFORMAT_BEGIN
 90
        0
 91
        1
 62
     0
 92
       -2
340
0
 93
        0
 40
0.045
309
GRIDFORMAT_END
 95
       32
302
GRIDFORMAT
  1
GRIDFORMAT_BEGIN
 90
        0
 91
        1
 62
     0
 92
       -2
340
0
 93
        0
 40
0.045
309
GRIDFORMAT_END
309
TABLEFORMAT_END
  1
CELLSTYLE_BEGIN
 90
        3
 91
        2
300
_DATA
309
CELLSTYLE_END
  0
XRECORD
  5
79E1
102
{ACAD_REACTORS
330
74C2
102
}
330
74C2
100
AcDbXrecord
280
     1
102
ACAD_ROUNDTRIP_PRE2007_TABLESTYLE
 90
      512
 91
        0
  1

 92
      512
 93
        0
  2

 94
      512
 95
        0
  3

  0
ENDSEC
  0
EOF
